<?xml version="1.0" standalone="no"?>
<!DOCTYPE svg PUBLIC "-//W3C//DTD SVG 1.1//EN" "http://www.w3.org/Graphics/SVG/1.1/DTD/svg11.dtd" >
<svg xmlns="http://www.w3.org/2000/svg" xmlns:xlink="http://www.w3.org/1999/xlink" version="1.1">
<metadata>
Created by FontForge 20170731 at Mon May 16 08:05:42 2022
 By Aleksey,,,
</metadata>
<defs>
<font id="DarkParadiseBold" horiz-adv-x="927" >
  <font-face 
    font-family="Dark Paradise"
    font-weight="700"
    font-stretch="normal"
    units-per-em="2048"
    panose-1="0 0 0 0 0 0 0 0 0 0"
    ascent="1638"
    descent="-410"
    x-height="870"
    cap-height="1274"
    bbox="-174 -530.114 1483 1744"
    underline-thickness="102"
    underline-position="-307"
    unicode-range="U+000A-20AC"
  />
<missing-glyph horiz-adv-x="1079" 
d="M102 1434h875v-1434h-875v1434zM160 1393l379 -633l381 633h-760zM514 717l-369 614v-1231zM541 674l-379 -631h758zM565 717l371 -621v1239z" />
    <glyph glyph-name=".notdef" horiz-adv-x="1079" 
d="M102 1434h875v-1434h-875v1434zM160 1393l379 -633l381 633h-760zM514 717l-369 614v-1231zM541 674l-379 -631h758zM565 717l371 -621v1239z" />
    <glyph glyph-name=".null" horiz-adv-x="0" 
 />
    <glyph glyph-name=".null" horiz-adv-x="0" 
 />
    <glyph glyph-name="nonmarkingreturn" horiz-adv-x="682" 
 />
    <glyph glyph-name="controlLF" unicode="&#xa;" horiz-adv-x="0" 
 />
    <glyph glyph-name="controlCR" unicode="&#xd;" horiz-adv-x="0" 
 />
    <glyph glyph-name="space" unicode=" " horiz-adv-x="393" 
 />
    <glyph glyph-name="exclam" unicode="!" horiz-adv-x="370" 
d="M196 400h-25l-100 879h227zM184 248q50 0 83.5 -34t33.5 -92q5 -51 -31 -88q-34 -36 -86 -34q-50 0 -83 32t-33 90t33 92t83 34z" />
    <glyph glyph-name="quotedbl" unicode="&#x22;" horiz-adv-x="483" 
d="M109 905l-89 585h194l-89 -585h-16zM269 1490h193l-88 -585h-16z" />
    <glyph glyph-name="numbersign" unicode="#" horiz-adv-x="776" 
d="M729 844h-152l-45 -412h142v-32h-146l-44 -403h-29l44 403h-276l-44 -403h-28l44 403h-148v32h152l45 412h-142v32h147l43 403h29l-44 -403h276l44 403h28l-43 -403h147v-32zM504 432l45 412h-277l-45 -412h277z" />
    <glyph glyph-name="dollar" unicode="$" horiz-adv-x="845" 
d="M505 754q35 -19 55 -30.5t53 -34t53 -42t44 -50.5t37 -64t22.5 -77.5t9.5 -95.5q0 -171 -102 -277.5t-271 -106.5h-16l-11 -157h-29l12 158q-89 8 -173.5 37t-122.5 57l46 212q0 -1 3.5 -1t6 0.5t2.5 -0.5q21 -106 91 -184t150 -91l36 513l-58 30q-37 19 -60.5 33
t-58.5 39t-57.5 52t-44.5 64t-33 85t-11 104q0 163 98.5 268t260.5 105h23l11 157h28l-11 -159q132 -15 242 -86l-46 -218h-10q-3 18 -5 27q-20 83 -72.5 156t-111.5 88l-35 -481zM229 1052q0 -51 16 -92.5t48 -72t59.5 -49t70.5 -40.5l34 474q-11 2 -33 2q-91 0 -143 -63
t-52 -159zM407 4q100 0 161.5 65.5t61.5 166.5q0 43 -13 81.5t-32 64.5t-48.5 51t-52 39.5t-54.5 31.5l-38 -500h15z" />
    <glyph glyph-name="percent" unicode="%" horiz-adv-x="1120" 
d="M855 1279h33l-624 -1282h-33zM824 610q107 0 175.5 -81.5t68.5 -223.5q0 -148 -67.5 -233.5t-179.5 -85.5q-106 0 -174.5 81.5t-68.5 223.5q0 148 67.5 233.5t178.5 85.5zM824 7q56 0 85.5 77.5t29.5 211.5q0 135 -30 214t-88 79q-56 0 -85 -77.5t-29 -211.5t30 -213.5
t87 -79.5zM540 985q0 -148 -67 -233.5t-178 -85.5q-107 0 -175.5 81.5t-68.5 223.5q0 148 67.5 233.5t179.5 85.5q106 0 174 -81.5t68 -223.5zM180 980q0 -135 30 -214t88 -79q56 0 84.5 77.5t28.5 211.5q0 135 -29.5 213.5t-86.5 78.5q-56 0 -85.5 -77.5t-29.5 -210.5z" />
    <glyph glyph-name="ampersand" unicode="&#x26;" horiz-adv-x="1146" 
d="M1109 92q1 0 4 -4t4 -4l-135 -170q-45 11 -120 57.5t-137 110.5l-4 -5q-26 -26 -59 -48q-74 -51 -162.5 -60t-170.5 27q-101 42 -169.5 135t-89.5 216q-25 143 9 251.5t122 168.5l50 32q-51 181 -15 307q42 144 137 188l9 4q18 8 43 15t70.5 12t93 -15t82.5 -66
q68 -96 46 -213q-12 -73 -48 -136q62 -78 124 -175.5t71 -152.5q22 -130 -9 -252.5t-109 -210.5q62 -52 163.5 -57t199.5 45zM268 1095q-32 -110 13 -276l151 101q76 61 113.5 119.5t23.5 128.5q-18 89 -91 100q-7 1 -20 1q-10 0 -28 -2q-17 -3 -39 -11q-86 -34 -123 -161z
M327 605zM531 147h-1q37 26 63 53q-72 72 -122.5 147.5t-118.5 204.5q-3 6 -6.5 12.5t-5.5 10t-3 5.5t-5.5 10.5t-6.5 13.5l-23 -15q-10 -7 -27.5 -18t-21.5 -14q-28 -18 -42 -28t-34 -25.5t-29 -27t-19 -29.5t-12.5 -36.5t-2.5 -42.5t5 -54q33 -191 140 -237
q54 -20 124.5 -1t147.5 71zM617 225q74 88 110 206.5t18 220.5q-14 97 -62 172l-30 42q-38 -58 -99 -102l-18 -15l-52 -40l-113 -74l-14 -10l-1 -1l-2 -1q6 -11 13 -25l5 -9q5 -9 10 -19q68 -128 117 -202t118 -143z" />
    <glyph glyph-name="quotesingle" unicode="'" horiz-adv-x="309" 
d="M94 1490h193l-88 -585h-16z" />
    <glyph glyph-name="quotesingle" unicode="&#x2018;" horiz-adv-x="309" 
d="M94 1490h193l-88 -585h-16z" />
    <glyph glyph-name="parenleft" unicode="(" horiz-adv-x="464" 
d="M311 1358q-177 -289 -177 -815q0 -534 177 -823l-18 -15q-221 350 -221 827q0 492 221 842z" />
    <glyph glyph-name="parenright" unicode=")" horiz-adv-x="442" 
d="M150 1374q221 -348 221 -828q0 -493 -221 -841l-19 15q177 289 177 816q0 533 -177 822z" />
    <glyph glyph-name="asterisk" unicode="*" horiz-adv-x="614" 
d="M543 889q10 -5 13 -15t-2 -19l-13 -24q-5 -10 -15 -12q-11 -2 -18 4l-155 130q-11 10 -25 1q-13 -8 -10 -24l24 -212q2 -11 -5 -19q-7 -9 -17 -9h-26q-10 0 -17 9q-7 8 -5 19l24 212q3 16 -10 24q-14 9 -25 -1l-155 -130q-7 -6 -18 -4q-10 2 -15 12l-13 24q-5 9 -2 19
t13 15l180 84q13 7 13 22q0 17 -13 23l-180 83q-10 5 -13 15t2 20l13 24q5 9 15 11q11 2 18 -4l155 -129q11 -10 25 -1q13 8 10 23l-24 213q-1 10 5 18q7 9 17 9h26q10 0 17 -9q6 -8 5 -18l-24 -213q-3 -15 10 -23q14 -9 25 1l155 129q7 6 18 4q10 -2 15 -11l13 -24
q5 -10 2 -20t-13 -15l-179 -83q-14 -7 -14 -23q0 -15 14 -22z" />
    <glyph glyph-name="plus" unicode="+" horiz-adv-x="636" 
d="M333 656h274v-36h-274v-352h-31v352h-273v36h273v352h31v-352z" />
    <glyph glyph-name="comma" unicode="," horiz-adv-x="417" 
d="M281 240q87 -78 84 -194q0 -98 -65.5 -177t-155.5 -128l-7 13q44 30 69 77.5t25 100.5q-3 81 -58 142q-23 30 -26.5 68t15.5 72q20 36 55 43.5t64 -17.5z" />
    <glyph glyph-name="hyphen" unicode="-" horiz-adv-x="690" 
d="M479 469h-305v63h305v-63z" />
    <glyph glyph-name="period" unicode="." horiz-adv-x="458" 
d="M384 173q28 -29 28 -69.5t-28 -69.5q-27 -29 -67 -29q-39 0 -66 29q-28 29 -28 69.5t28 69.5q27 29 66 29q40 0 67 -29z" />
    <glyph glyph-name="slash" unicode="/" horiz-adv-x="608" 
d="M576 1374h35l-414 -1490h-35z" />
    <glyph glyph-name="zero" unicode="0" horiz-adv-x="901" 
d="M449 1298q169 0 275 -167t106 -475q0 -319 -102.5 -495t-279.5 -176q-168 0 -273 167.5t-105 475.5q0 320 101 495t278 175zM453 10q91 0 134.5 167.5t43.5 457.5q0 295 -46 466.5t-138 171.5q-91 0 -134.5 -167.5t-43.5 -455.5q0 -296 46 -468t138 -172z" />
    <glyph glyph-name="one" unicode="1" horiz-adv-x="536" 
d="M418 22l76 -6v-16h-445l1 16l76 6q58 5 60 49v1033l-108 -91l-10 9q156 136 288 276h5v-1225q0 -46 57 -51z" />
    <glyph glyph-name="two" unicode="2" horiz-adv-x="753" 
d="M689 296l-61 -296l-1 1v-1h-584v13l72 105q77 111 131.5 199.5t106 192.5t78 204.5t26.5 195.5q0 131 -50.5 201t-130.5 70q-123 0 -209 -175l-17 11q13 34 29.5 67.5t46 73.5t63.5 70t82.5 50t102.5 20q119 0 200 -90.5t81 -257.5q0 -92 -31 -183t-99 -192.5
t-148 -196.5t-205 -228l103 2q11 0 125 -3q38 0 58.5 0.5t50.5 4t48 11t39 20.5t37 33.5t30 49.5l14 30z" />
    <glyph glyph-name="three" unicode="3" horiz-adv-x="724" 
d="M428 745q95 -22 161.5 -118t66.5 -233q0 -178 -100 -293.5t-261 -115.5q-105 0 -242 74l48 192q14 -25 37.5 -77.5t38.5 -81.5t43 -54t62 -25q85 0 143.5 81t58.5 218q0 126 -57.5 216.5t-150.5 113.5l-44 10l-4 19l33 16q83 42 131.5 121.5t47.5 173.5q0 93 -44.5 147.5
t-114.5 54.5q-116 0 -199 -145l-16 11q123 248 316 248q104 0 172 -71t68 -186q0 -96 -53 -175.5t-141 -117.5v-3z" />
    <glyph glyph-name="four" unicode="4" horiz-adv-x="776" 
d="M642 22l75 -6v-16h-444l1 16l75 6q58 5 60 48v247h-384l4 105l506 858h50v-811h122v-152h-122v-244q0 -46 57 -51zM88 469h321v548z" />
    <glyph glyph-name="five" unicode="5" horiz-adv-x="718" 
d="M226 840q106 0 188 -35.5t131.5 -97t74.5 -138t25 -165.5q0 -184 -99 -301.5t-248 -117.5q-130 2 -237 79l47 196q11 -22 33 -73.5t37.5 -84.5t43.5 -61t59 -28q90 0 150 80.5t60 205.5q0 68 -19 131t-57 118.5t-105.5 89t-155.5 33.5h-37l42 606h475l-1 -3v-296h-15
q0 15 -1 28t-10.5 35t-27 37.5t-53 27.5t-85.5 13h-270l-16 -279h71z" />
    <glyph glyph-name="six" unicode="6" horiz-adv-x="813" 
d="M497 792q104 0 180 -103.5t76 -275.5q0 -192 -94.5 -310t-243.5 -118q-159 0 -254 138.5t-95 368.5q0 297 148.5 522t371.5 284l6 -26q-146 -60 -226.5 -224.5t-99.5 -408.5q42 58 110 105.5t121 47.5zM421 10q67 0 103.5 95t36.5 257q0 166 -39.5 256t-106.5 90
q-77 0 -151 -91q-4 -57 -4 -134q0 -229 44 -351t117 -122z" />
    <glyph glyph-name="seven" unicode="7" horiz-adv-x="704" 
d="M84 1277h595v-7l-330 -1270h-159l427 1118q-110 1 -180 0t-134 -6t-100 -13.5t-66 -23.5t-45 -36t-24 -52l-14 -51h-17l36 340l10 -3z" />
    <glyph glyph-name="eight" unicode="8" horiz-adv-x="786" 
d="M491 729q226 -146 226 -379q0 -157 -95.5 -261t-238.5 -104q-83 0 -153 33t-116 103.5t-46 165.5q-4 104 52 192t151 128q-81 57 -126 145.5t-44 187.5q0 152 86 255t216 103q115 2 197 -82q81 -83 78 -199q2 -93 -49.5 -172t-137.5 -116zM243 1045q0 -103 44 -163
t124 -106l55 -31q95 127 90 284q0 107 -43 175.5t-115 68.5q-74 0 -114.5 -64.5t-40.5 -163.5zM388 10q83 0 135.5 68.5t52.5 170.5q0 57 -15.5 103t-44.5 79t-56.5 54t-65.5 43l-60 37q-18 10 -42 28q-107 -135 -101 -308q0 -131 56.5 -203t140.5 -72z" />
    <glyph glyph-name="nine" unicode="9" horiz-adv-x="811" 
d="M395 1298q160 0 255 -138t95 -368q0 -197 -69 -369t-187 -286t-264 -152l-6 26q149 61 230.5 230.5t98.5 419.5q-48 -63 -116.5 -116.5t-115.5 -53.5q-104 0 -180.5 103.5t-76.5 275.5q0 192 94 310t242 118zM395 575q30 0 64.5 23t89.5 88q3 56 3 114q0 229 -44.5 351
t-118.5 122q-66 0 -102 -95t-36 -257q0 -166 39 -256t105 -90z" />
    <glyph glyph-name="colon" unicode=":" horiz-adv-x="448" 
d="M362 591q-27 -30 -67 -30t-67 30q-28 31 -28 73t28 74q27 30 67 30t67 -30q28 -32 28 -74t-28 -73zM362 182q28 -31 28 -73.5t-28 -73.5q-27 -30 -67 -30t-67 30q-28 31 -28 73.5t28 73.5q27 30 67 30t67 -30z" />
    <glyph glyph-name="semicolon" unicode=";" horiz-adv-x="452" 
d="M214 601l-11 13q-25 31 -25 70.5t25 70.5l11 14q23 29 61 29t61 -29l11 -14q25 -31 25 -70.5t-25 -70.5l-11 -13q-24 -30 -61 -30t-61 30zM310 208q41 -34 63 -82t21 -100q0 -92 -65.5 -165.5t-155.5 -119.5l-7 12q43 27 67.5 71t25.5 95q-3 79 -57 134q-23 28 -27 63.5
t15 66.5q17 33 54 41t66 -16z" />
    <glyph glyph-name="less" unicode="&#x3c;" horiz-adv-x="663" 
d="M619 955l-537 -317l537 -317l-14 -32l-564 333v32l564 333z" />
    <glyph glyph-name="equal" unicode="=" horiz-adv-x="653" 
d="M615 494h-578v35h578v-35zM615 747h-578v35h578v-35z" />
    <glyph glyph-name="greater" unicode="&#x3e;" horiz-adv-x="663" 
d="M57 987l564 -333v-32l-564 -333l-14 32l537 317l-537 317z" />
    <glyph glyph-name="question" unicode="?" horiz-adv-x="983" 
d="M534 193q26 32 67 32q40 0 66 -32q28 -34 28 -78t-28 -79q-25 -31 -66 -31t-67 32q-28 34 -28 78t28 78zM635 1300q135 0 215.5 -81t80.5 -215q0 -62 -21.5 -116t-56 -92.5t-76 -72.5t-83 -61.5t-76 -53.5t-56 -55t-21.5 -59q-2 -29 19 -50t49 -19q17 0 37 5l4 -24
q-20 -6 -41 -6q-49 0 -81 28.5t-32 82.5q0 42 27.5 85.5t66.5 84t78 84.5t66.5 102t27.5 120q0 105 -50.5 172.5t-141.5 66.5q-76 -1 -122 -84.5t-30 -175.5h-13l-116 119q13 22 27.5 42t47.5 54t69 58t90 42.5t112 18.5z" />
    <glyph glyph-name="at" unicode="@" horiz-adv-x="1273" 
d="M954 925l-71 -423q-10 -61 -12 -125q0 -104 69 -104q89 0 154.5 122t65.5 296q0 162 -62.5 295t-174 209.5t-249.5 76.5q-153 0 -278 -94.5t-196 -260.5t-71 -369q0 -198 67 -355.5t189 -246t276 -88.5q202 0 349 139l14 -21q-74 -71 -170 -109t-199 -37
q-166 0 -300.5 89.5t-211.5 252t-77 367.5q0 211 81 385.5t222 275t310 100.5q151 0 273 -79.5t190.5 -219t68.5 -309.5q0 -191 -82 -323.5t-214 -132.5q-135 0 -162 108q-85 -125 -183 -125q-84 0 -144.5 68.5t-60.5 197.5q0 116 38.5 217t115.5 165.5t177 64.5
q99 3 166 -67l84 60h8zM759 506l51 308q-16 42 -43 66t-59 24q-60 0 -108.5 -59.5t-73.5 -152t-25 -196.5q0 -111 33 -162.5t86 -51.5q68 0 127 97v20q2 55 12 107z" />
    <glyph glyph-name="A" unicode="A" 
d="M540 21q61 4 80 33.5t6 84.5l-102 407h-270l-78 -285q-14 -52 -18.5 -91t2 -74.5t33.5 -54.5t74 -20l23 -2l1 -16h-311v16l16 2q37 5 57 19.5t44 67.5t54 162l230 836l-48 168h195l281 -1105q8 -32 12 -46t13.5 -37.5t19.5 -34t27 -20t39 -10.5l25 -2v-16h-435l1 16z
M260 570h258l-121 499l-5 -15z" />
    <glyph glyph-name="B" unicode="B" horiz-adv-x="868" 
d="M498 696q164 -25 248 -120t84 -226q0 -159 -106.5 -253t-302.5 -94h-404l1 16l22 2q32 1 52 10.5t27.5 25t9 24t1.5 20.5v1051v8q1 8 0.5 12t-1.5 13.5t-3.5 15.5t-6.5 14.5t-11 14t-16 11t-22.5 8.5t-29.5 3l-24 4l1 18h398q103 0 177 -23t114.5 -63.5t58.5 -87
t18 -101.5q0 -234 -270 -299zM414 29q102 10 156.5 97t54.5 212q0 132 -53.5 228t-142.5 116v24q72 21 110.5 95t38.5 168q0 266 -216 266h-49v-569l-2 -647l75 6z" />
    <glyph glyph-name="C" unicode="C" horiz-adv-x="921" 
d="M818 283l34 110h19v-319q-57 -32 -156.5 -66t-169.5 -34q-234 0 -370 176t-136 481t139 488t380 183q55 0 155 -44t160 -80l-24 -301h-17l-74 298q-29 27 -96.5 57t-108.5 30q-66 0 -118.5 -32t-87.5 -87t-58 -133t-33 -167t-10 -192q0 -192 35 -335.5t107 -225.5
t173 -82q93 0 154.5 71.5t102.5 203.5z" />
    <glyph glyph-name="D" unicode="D" horiz-adv-x="997" 
d="M407 1280q134 2 240.5 -43t174.5 -128t103.5 -195t35.5 -246q0 -138 -36.5 -257t-107 -211t-184 -144.5t-258.5 -52.5h-357v16l25 2q29 1 48.5 10.5t27 24t10 24.5t2.5 20v1068q0 83 -90 83l-24 5l-1 18zM393 25q117 3 200.5 89t121.5 216.5t38 288.5q0 130 -22.5 241
t-68 200t-122.5 140t-177 51h-51v-1226h81z" />
    <glyph glyph-name="E" unicode="E" horiz-adv-x="909" 
d="M857 402l26 -1l-122 -398h-744l1 16l28 3q84 3 84 103v1022v3q0 16 -1.5 27.5t-8.5 31t-27 31.5t-52 13l-25 3l1 18h740l94 -391h-22q-17 71 -54.5 134t-95.5 116t-143 84t-186 31h-39l2 -572v-10h427v-27h-427v-4v-616h25q124 1 235 53.5t185 139.5t99 190z" />
    <glyph glyph-name="F" unicode="F" horiz-adv-x="845" 
d="M749 1274l94 -391l-19 -1q-17 70 -55 134t-96.5 116.5t-144 84t-186.5 31.5h-31l2 -582h352v-27h-352v-537q0 -76 108 -80l36 -3l1 -16h-440v16l26 2q86 3 86 79v1047v4q3 99 -91 102l-23 3l1 18h732z" />
    <glyph glyph-name="G" unicode="G" horiz-adv-x="1036" 
d="M529 514h505l-1 -19l-67 -6q-54 -4 -54 -49v-438q-37 53 -121 34h-1q-35 -8 -61 -22q-88 -33 -184 -39q-234 0 -370 175.5t-136 480.5t139 488.5t380 183.5q55 0 154.5 -44.5t160.5 -80.5l-26 -300h-15l-74 298q-28 27 -95 56.5t-109 29.5q-82 0 -143 -47.5t-96 -133
t-52 -192.5t-17 -237q0 -192 35 -335.5t107 -226t173 -82.5q50 0 95 23.5t73 64.5v344q0 17 -13.5 31.5t-46.5 17.5l-140 6v19z" />
    <glyph glyph-name="H" unicode="H" horiz-adv-x="1019" 
d="M980 21l22 -2v-16h-400l-1 16l33 3q75 2 75 92l-1 517h-395v-531q-3 -32 19 -56t55 -22l31 -3l2 -16h-403l1 16l27 2q85 3 85 79l-1 1069q0 81 -90 84l-23 3l1 18h401l-1 -18l-20 -3q-85 -3 -85 -84v-510h395l1 521q0 13 -1.5 20t-8 22t-27.5 23t-54 9l-17 2v18h402
l-1 -18l-20 -2q-31 -1 -51.5 -10t-27.5 -22.5t-9 -22t-2 -19.5l1 -1066q0 -59 35 -80q21 -12 53 -13z" />
    <glyph glyph-name="I" unicode="I" horiz-adv-x="458" 
d="M414 21l31 -2v-16h-432l1 16l29 2q30 1 51 10t29 23.5t11 24.5t3 20v1075q0 10 -0.5 15.5t-5.5 19t-15 21.5t-32 15.5t-53 8.5l-19 2l1 18h431v-18l-27 -3q-97 -3 -97 -79v-1075q0 -73 94 -78z" />
    <glyph glyph-name="J" unicode="J" horiz-adv-x="448" 
d="M7 1274h433l-2 -18l-25 -3q-36 -2 -58.5 -10t-29.5 -23t-8 -20t-1 -19v-1066q0 -26 -2 -38q-7 -76 -30.5 -138t-56.5 -101.5t-74 -69t-82.5 -41t-83 -17.5t-74.5 2q-52 6 -87 44l27 178q9 -10 30 -37t40 -51t44 -49t46 -37.5t43 -9t37.5 29t26 84t12.5 148.5q1 35 1 115
v1054q0 68 -98 72l-28 3v18z" />
    <glyph glyph-name="K" unicode="K" horiz-adv-x="931" 
d="M728 435q47 -193 76.5 -278t56 -111.5t72.5 -26.5h7v-16h-233q-21 15 -33 38q-46 82 -108 321q-71 270 -125 341l-36 -49l-92 -125l-2 -416v-3q0 -14 1.5 -24t8.5 -26.5t28 -27t53 -11.5l23 -2l-1 -16h-406v16l20 2q90 6 90 92l3 1062q0 10 -2.5 20t-10 24t-27 23.5
t-48.5 10.5l-27 3l1 18h406v-18l-30 -3q-34 -2 -53.5 -18.5t-23 -30t-3.5 -27.5v-605l114 158l34 45l210 295q6 7 13.5 19.5t18 45t4.5 58.5q-8 25 -27.5 41t-44.5 18l-55 4v18h360v-18l-27 -2q-42 -3 -80.5 -38t-112.5 -133l-187 -255l-43 -58q39 -11 70.5 -31.5t62.5 -58
t57.5 -99t47.5 -146.5z" />
    <glyph glyph-name="L" unicode="L" horiz-adv-x="835" 
d="M805 428l30 -1l-106 -424h-711v16l14 1q99 5 99 105v1039q0 88 -95 90l-19 2l-1 18h430v-18l-26 -3q-30 -3 -51.5 -11.5t-31.5 -18t-16 -23.5t-6.5 -21t-0.5 -17l-1 -1143h45q155 0 279.5 114.5t167.5 294.5z" />
    <glyph glyph-name="M" unicode="M" horiz-adv-x="1220" 
d="M809 21q28 2 47 12.5t29 26t15.5 41.5t6.5 49t0 60l-13 947l-16 -56l-280 -1016h-70l-301 998l-18 57l-33 -954q-2 -69 26.5 -115.5t97.5 -49.5l22 -2v-16h-320l1 16l43 4q96 9 100 157l30 901q4 74 -23.5 118.5t-69.5 51.5l-33 5l1 18h309l254 -944l12 -45l271 989h297
l-1 -18l-27 -3q-28 -2 -48 -11.5t-30.5 -21t-16.5 -27.5t-7.5 -26.5t-1.5 -21.5l28 -925v-11q4 -108 18 -139q21 -45 83 -49l20 -2l1 -16h-426v16z" />
    <glyph glyph-name="N" unicode="N" horiz-adv-x="983" 
d="M671 1274h302v-18l-21 -2q-56 -1 -82 -54.5t-26 -127.5v-1077h-101l-539 1104l-14 25l1 -922q0 -74 29 -129.5t90 -54.5l20 -2l2 -16l-306 3v16l20 2q51 -1 81 55.5t30 127.5v885q1 59 -35.5 105t-94.5 59l-2 1l-19 2v18h314l476 -989l18 -40v827q0 70 -32.5 125
t-90.5 57l-20 2v18z" />
    <glyph glyph-name="O" unicode="O" horiz-adv-x="1054" 
d="M533 1302q218 0 351 -183t133 -476q0 -173 -62.5 -325.5t-178 -248t-257.5 -95.5q-143 0 -253 83.5t-169.5 233t-59.5 342.5q0 129 37 250.5t101.5 214t158 148.5t199.5 56zM527 5q136 0 209.5 168.5t73.5 463.5q0 287 -75 462t-208 175q-134 0 -208.5 -170.5
t-74.5 -464.5q0 -285 75.5 -459.5t207.5 -174.5z" />
    <glyph glyph-name="P" unicode="P" horiz-adv-x="833" 
d="M820 955q0 -171 -108.5 -269t-284.5 -98q-49 -1 -114 9l2 -495q0 -75 103 -80l35 -3v-16h-435v16l28 3q86 4 86 80l-2 1074q0 9 -0.5 15.5t-5 20t-13 22t-27 15.5t-43.5 7h-25l1 18h425q189 0 283.5 -84.5t94.5 -234.5zM315 630q49 -22 107 -20q89 0 143 87.5t54 230.5
q0 153 -54 240.5t-162 87.5h-94z" />
    <glyph glyph-name="Q" unicode="Q" horiz-adv-x="1060" 
d="M1017 644q2 -242 -127 -446q72 -103 74 -231q0 -125 -75 -174t-273 -42l-384 14q-91 3 -91 -40q0 -35 48 -65l-8 -11q-36 20 -52 30.5t-42.5 31.5t-38 43t-11.5 48q0 53 49.5 90.5t137.5 33.5l313 -10l92 -2q293 -8 293 136q-3 69 -60 108q-142 -183 -343 -183
q-217 0 -349.5 183t-132.5 476q0 129 37 250.5t101.5 214t158 148.5t199.5 56q218 0 351 -183t133 -476zM527 5q153 0 227 216q12 36 21 72q38 172 35 344q0 188 -32.5 331t-97 225t-153.5 82q-134 0 -208.5 -170.5t-74.5 -464.5q0 -286 75.5 -460.5t207.5 -174.5z" />
    <glyph glyph-name="R" unicode="R" horiz-adv-x="946" 
d="M946 19h8v-19h-263q-22 10 -37 30q-52 63 -122 251q-62 164 -107.5 227.5t-111.5 79.5l1 -497q0 -9 3.5 -19t13.5 -23t34 -22t59 -10l29 -2v-16h-435v16l28 2q85 3 85 74l-1 1081q0 12 -1.5 20.5t-9 24.5t-27.5 24.5t-52 7.5l-24 2v19h425q189 0 284 -85t95 -235
q0 -155 -90.5 -250t-242.5 -112q62 -22 108 -80t98 -176q47 -107 81 -171t64 -95t52 -39t56 -8zM403 1251h-94l6 -625q49 -22 107 -20q89 0 142.5 87.5t53.5 230.5q0 153 -53.5 240t-161.5 87z" />
    <glyph glyph-name="S" unicode="S" horiz-adv-x="729" 
d="M417 753q66 -33 112.5 -67t85 -80.5t58 -107.5t19.5 -138q0 -96 -41.5 -183.5t-124 -145t-186.5 -57.5q-151 5 -291 67l8 322h15l54 -171q61 -179 216 -179q88 1 143.5 77t55.5 191q0 78 -28.5 138t-76 99t-120.5 74q-265 125 -265 379q0 132 88 231.5t234 99.5
q102 0 195 -36l71 -38l-22 -292h-11l-89 261q-59 64 -146 67q-73 0 -121 -64.5t-48 -157.5q0 -185 215 -289z" />
    <glyph glyph-name="T" unicode="T" horiz-adv-x="972" 
d="M897 1274l76 -376h-18q-30 132 -144 245t-226 113h-8l3 -1156q0 -9 3 -19.5t11.5 -24.5t29 -23.5t49.5 -10.5l48 -3v-16h-469l2 16l31 2q37 1 62 10.5t34.5 24t12.5 24.5t3 20l-1 1156h-8q-67 0 -150 -57t-146 -141t-80 -160h-14l90 376h809z" />
    <glyph glyph-name="U" unicode="U" horiz-adv-x="997" 
d="M679 1274h316v-18l-21 -2q-53 -1 -80 -50.5t-27 -122.5l-2 -610q0 -497 -360 -497q-196 0 -285 106.5t-89 347.5v724q5 41 -25 72q-29 31 -70 29l-30 3v18h432l-1 -18l-22 -2q-102 -3 -102 -102v-682q0 -218 63.5 -316t193.5 -98q121 0 190 103.5t69 310.5l-1 611
q0 74 -31.5 123t-96.5 50l-21 2v18z" />
    <glyph glyph-name="V" unicode="V" horiz-adv-x="970" 
d="M678 1274h312l-2 -18l-16 -2q-36 -4 -55 -18t-40 -60.5t-49 -146.5l-278 -1029h-118l-308 1104q-19 70 -46 108.5t-75 41.5l-23 2v18h431v-18l-23 -2q-115 -5 -78 -148l245 -896l10 -40l230 848q58 220 -96 236l-20 2z" />
    <glyph glyph-name="W" unicode="W" horiz-adv-x="1329" 
d="M1037 1274h311l-1 -18l-16 -2q-36 -4 -54.5 -18t-39.5 -59t-49 -144l-279 -1033h-118l-122 441l-119 -441h-118l-307 1103l-13.5 46.5t-15 38.5t-21.5 34t-28.5 20.5t-39.5 10.5l-27 3v18h1009l-1 -18l-16 -2q-37 -5 -55 -17.5t-39 -58t-49 -145.5l-70 -259l155 -564
l10 -40l235 868q16 63 14.5 109t-29.5 73.5t-86 33.5l-21 2v18zM801 1038q23 79 10.5 133t-66.5 73q-27 9 -55 3q-54 -21 -23 -136l77 -281zM565 170l89 327l-170 610q-9 33 -13.5 47t-14 38t-18 34t-22.5 18.5t-31 7.5l-15 1l-18 -1q-27 1 -41.5 -9.5t-16.5 -32t1 -42
t11 -51.5l249 -907z" />
    <glyph glyph-name="X" unicode="X" horiz-adv-x="925" 
d="M915 21l21 -2v-16h-414l1 16l32 2q46 4 63 40t-6 79l-210 430l-147 -299q-37 -79 -47.5 -131.5t9 -84t73.5 -34.5l22 -2v-16l-322 -3v16l14 1q54 5 101.5 56t106.5 179l170 355l-235 488q-1 1 -9 19.5t-10.5 23.5l-11 22t-13 23.5t-13.5 20.5t-16.5 20t-17 14t-20 11.5
t-21.5 4.5l-24 2v18h417v-18l-28 -3q-30 -4 -46.5 -17t-19 -32.5t1.5 -40t15 -42.5l166 -348l105 226q20 43 32.5 72.5t23 61t11.5 51.5t-3.5 36.5t-20.5 24t-42 7.5l-35 4v18h337l-1 -18l-23 -2q-30 -3 -54.5 -13t-56.5 -36t-66.5 -80.5t-70.5 -136.5l-115 -250l284 -585
q58 -127 113 -132z" />
    <glyph glyph-name="Y" unicode="Y" horiz-adv-x="876" 
d="M612 1274h285v-18l-16 -2q-34 -4 -57 -20t-51.5 -64.5t-62.5 -139.5l-169 -446v-484q0 -9 4.5 -20.5t15 -25.5t34.5 -23.5t57 -9.5l31 -2v-16h-470l2 16l24 1q119 5 119 80v462l-201 489q-16 40 -26 62.5t-26.5 52.5t-31 46t-35 28.5t-43.5 13.5l-18 2l1 18h425v-18
l-22 -2q-62 -5 -68.5 -53t36.5 -153l159 -392l14 -36l161 418q39 91 29 150t-80 66l-20 2v18z" />
    <glyph glyph-name="Z" unicode="Z" horiz-adv-x="886" 
d="M849 405h24l-86 -402h-718v28l537 1196l12 29h-24q-199 0 -361.5 -106t-198.5 -250h-22l92 374h702v-33l-533 -1192l-15 -30h45q221 0 361 105.5t185 280.5z" />
    <glyph glyph-name="bracketleft" unicode="[" horiz-adv-x="221" 
d="M335 1374v-21h-221q28 -422 28 -814q0 -391 -28 -813h221v-21h-255v1669h255z" />
    <glyph glyph-name="backslash" unicode="\" horiz-adv-x="442" 
d="M31 1374l414 -1490h-35l-414 1490h35z" />
    <glyph glyph-name="bracketright" unicode="]" horiz-adv-x="221" 
d="M-115 1374h255v-1669h-255v21h221q-28 399 -28 813q0 392 28 814h-221v21z" />
    <glyph glyph-name="asciicircum" unicode="^" horiz-adv-x="688" 
d="M347 1300l301 -673l-25 -17l-279 623l-280 -623l-25 17l302 673h6z" />
    <glyph glyph-name="underscore" unicode="_" horiz-adv-x="700" 
d="M619 -155h-539v39h539v-39z" />
    <glyph glyph-name="grave" unicode="`" horiz-adv-x="264" 
d="M129 1406l87 -333l-10 -9l-274 342h197z" />
    <glyph glyph-name="a" unicode="a" horiz-adv-x="755" 
d="M730 123l11 -8q-20 -36 -30.5 -52t-31.5 -42.5t-43 -38t-48 -11.5q-49 0 -80 33.5t-40 98.5l-4 51q-43 -73 -114 -128t-156 -55q-56 0 -101.5 45t-60.5 116.5t12 158.5l429 160l1 20h-1l3 92q8 293 -137 293q-46 0 -77.5 -58t-19.5 -129l-153 -3q0 85 103.5 158.5
t230.5 73.5q125 0 174 -75t42 -273l-15 -384q-3 -91 41 -91q35 0 65 48zM316 73q43 -1 83 40t66 96l7 218l-283 -106q-16 -93 24.5 -170t102.5 -78z" />
    <glyph glyph-name="b" unicode="b" horiz-adv-x="796" 
d="M474 898q120 0 200.5 -122t80.5 -311q0 -112 -30.5 -206t-82 -154.5t-116 -94t-133.5 -33.5q-53 0 -129.5 30.5t-107.5 72.5l-66 -109h-18v1200q0 15 -9 29.5t-27.5 26t-33 19.5t-41 16.5t-34.5 11t-29 8.5l76 23l260 77v-704q128 220 240 220zM405 20q78 0 124.5 111
t46.5 277q0 161 -53 266.5t-142 105.5q-11 0 -23 -4t-21 -8.5t-20.5 -15.5t-18 -17.5t-18 -21.5t-16 -21.5t-16 -24t-14.5 -21.5v-443q28 -79 74 -131t97 -52z" />
    <glyph glyph-name="c" unicode="c" horiz-adv-x="727" 
d="M682 379h18q-16 -200 -111.5 -304t-228.5 -104q-139 0 -229 126t-90 315q0 206 105 346t263 140q103 0 166.5 -53.5t63.5 -137.5l-151 12q14 72 -12 107t-67 35q-84 0 -137.5 -101t-53.5 -269q0 -182 62 -287t160 -105q27 0 52.5 5t59 22.5t59 46.5t45.5 82t26 124z" />
    <glyph glyph-name="d" unicode="d" horiz-adv-x="872" 
d="M562 -29v181l2 41q-130 -222 -242 -222q-120 0 -200.5 122t-80.5 311q0 112 30.5 206t82 154.5t116 94t133.5 33.5q86 2 159 -41v320q0 30 -35.5 57t-70.5 40t-65 20l65 17l268 77v-1265q0 -26 7.5 -35.5t29.5 -17.5l116 -22zM562 219v447q-29 83 -72.5 139t-93.5 56
q-52 0 -92.5 -55t-62 -146t-21.5 -199q0 -161 53 -266.5t142 -105.5q21 0 40.5 10t37.5 29.5t31 36.5t30 42q3 4 4.5 6.5t3.5 5.5z" />
    <glyph glyph-name="e" unicode="e" horiz-adv-x="729" 
d="M682 379h18q-16 -200 -111.5 -304t-228.5 -104q-139 0 -229 126t-90 315q0 206 105 346t263 140q102 3 171 -71t61 -175h-407q-16 -77 -16 -161q0 -186 59 -290t163 -102q27 0 52 5.5t57.5 23t58 46t46.5 82t28 123.5zM409 862q-57 0 -101.5 -48.5t-67.5 -136.5h255
q19 93 -12.5 139t-73.5 46z" />
    <glyph glyph-name="f" unicode="f" horiz-adv-x="507" 
d="M126 961q0 95 19 167.5t51 116t73.5 72t87 38t91 11.5t87 -5.5t73 -15.5t50.5 -15l19 -7l-14 -181q-42 57 -86 99t-76.5 60t-59.5 28.5t-41 10.5l-14 1q-37 -9 -59.5 -33.5t-31.5 -76.5t-10.5 -92.5t-1.5 -127.5v-25l3 -154h288v-24h-288l1 -24v-714q0 -45 57 -47l67 -4
l1 -19h-371v19l31 2q23 1 35 9.5t14.5 17t2.5 20.5v740h-114l114 62z" />
    <glyph glyph-name="g" unicode="g" horiz-adv-x="768" 
d="M517 168q124 0 182 -42t58 -115q0 -90 -74 -178.5t-193.5 -144.5t-242.5 -56q-122 -1 -185.5 49t-63.5 129q0 28 27 63t71.5 69t80.5 57.5t74 45.5q-206 16 -213 109q-2 6 1 17.5t52.5 52t146.5 86.5l-22 7q-74 34 -116 105.5t-42 166.5q0 137 83 223t212 86q21 0 40 -3
h313l-72 -43q-21 -13 -31 -26t-12.5 -34.5t14.5 -48.5q34 -65 34 -144q0 -136 -84 -221.5t-213 -85.5q-37 0 -68 7q-25 -9 -47.5 -18.5t-47 -22.5t-37.5 -25.5t-9 -22.5q10 -24 50 -33t120 -9h214zM349 875q-59 0 -94 -76t-35 -206q0 -127 35 -202t94 -75t93.5 76.5
t34.5 206.5q0 127 -34.5 201.5t-93.5 74.5zM355 -265q148 0 248.5 58.5t100.5 141.5q0 60 -50 85t-174 25h-182q-67 -34 -113.5 -66.5t-65 -54t-26 -38t-7 -24.5t1.5 -8q28 -119 267 -119z" />
    <glyph glyph-name="h" unicode="h" horiz-adv-x="811" 
d="M764 21l31 -2l-1 -19h-334l1 19l31 2q23 2 35 10.5t14.5 16.5t2.5 20v517q0 100 -28 144.5t-93 44.5q-38 0 -74.5 -30t-81.5 -86v-590q0 -42 56 -47l30 -2l1 -19h-335l1 19l30 2q54 2 54 47v1103q0 49 -11.5 68.5t-43.5 28.5l-74 19l292 95v-669l-1 -26q48 62 83.5 101
t84.5 74.5t89 35.5q183 0 183 -270v-560q0 -42 58 -47z" />
    <glyph glyph-name="i" unicode="i" horiz-adv-x="407" 
d="M85 21q23 2 35 10.5t14.5 16.5t2.5 20v621q0 48 -12 69t-45 30l-76 20l295 88v-828q0 -42 58 -47l33 -2v-20h-339l1 20zM202 1067q-46 0 -78 34q-32 33 -30 80q0 45 28 81.5t80 36.5q46 0 78 -34q31 -32 29 -80q0 -45 -27.5 -81.5t-79.5 -36.5z" />
    <glyph glyph-name="j" unicode="j" horiz-adv-x="366" 
d="M72 788l-73 20l294 88v-966q0 -90 -29.5 -176.5t-75.5 -147.5t-102.5 -98.5t-109.5 -37.5q-53 -2 -93 31v180q14 -11 44.5 -46t55 -63.5t54 -43.5t49.5 0.5t33 83.5t12 190v887q0 48 -13 69t-46 30zM196 1067q-46 0 -78 34q-32 33 -30 80q0 45 28 81.5t80 36.5
q46 0 78 -34q32 -33 30 -80q0 -45 -28 -81.5t-80 -36.5z" />
    <glyph glyph-name="k" unicode="k" horiz-adv-x="804" 
d="M805 19v-19l-251 -1l-26 71l-173 412l-88 -111v-303q0 -40 56 -45l39 -4v-19h-342v19l31 2q53 2 53 47v1103q0 49 -11 68.5t-43 28.5l-89 19l306 95v-945v-17l172 210q70 88 70 154q0 26 -17.5 45t-42.5 21l-20 2l1 18h300v-18l-20 -4q-42 -8 -92.5 -53.5t-144.5 -164.5
l-15 -18l216 -446q54 -105 69 -122q18 -21 44 -23z" />
    <glyph glyph-name="l" unicode="l" horiz-adv-x="374" 
d="M50 21q57 2 57 47v1103q0 49 -11.5 68.5t-43.5 28.5l-93 19l310 95v-1314q0 -43 53 -47l31 -2l1 -19h-335v19z" />
    <glyph glyph-name="m" unicode="m" horiz-adv-x="1243" 
d="M1224 19v-19h-330v19l27 2q55 4 55 47v517q0 100 -25 144.5t-85 44.5q-15 0 -29 -7t-30.5 -25t-26 -29t-30 -40t-26.5 -37v-568q0 -43 54 -47l27 -2v-19h-326v19l27 2q55 4 55 47v517q0 100 -25 144.5t-85 44.5q-15 0 -29 -7.5t-30 -25t-26.5 -30t-29.5 -40t-27 -37.5
v-566q0 -43 55 -47l26 -2l1 -19h-331l1 19l30 2q55 2 55 47v621q0 48 -12 69t-45 30l-91 20l311 88l-6 -156l-1 -74q95 127 138 169q64 63 111 63q69 0 108.5 -52t54.5 -137l5 -38q30 40 39.5 52.5t38 48.5t44.5 51t40 36.5t44.5 30t40.5 8.5q173 0 173 -270v-560
q0 -43 54 -47z" />
    <glyph glyph-name="n" unicode="n" horiz-adv-x="835" 
d="M514 21q55 4 55 47v517q0 100 -27.5 144.5t-92.5 44.5q-13 0 -27.5 -6.5t-25.5 -14.5t-27 -25.5t-24.5 -27t-26.5 -33t-25 -31.5v-568q0 -43 54 -47l31 -2v-19h-334v19l31 2q55 2 55 47v621q0 48 -12 69t-45 30l-67 20l287 88l-6 -156v-76q96 122 135 161q74 73 127 73
q183 0 183 -270v-560q0 -43 54 -47l31 -2v-19h-334v19z" />
    <glyph glyph-name="o" unicode="o" horiz-adv-x="802" 
d="M405 898q159 0 258.5 -132.5t99.5 -330.5q0 -197 -103 -330.5t-263 -133.5q-159 0 -258.5 132.5t-99.5 331.5q0 197 103 330t263 133zM405 7q57 0 98.5 56t61 144t19.5 195q0 88 -9.5 165.5t-29.5 146t-58 108.5t-90 40q-57 0 -98.5 -55.5t-61 -143.5t-19.5 -196
q0 -88 9.5 -165.5t29.5 -146t58 -108.5t90 -40z" />
    <glyph glyph-name="p" unicode="p" horiz-adv-x="862" 
d="M540 898q120 0 200.5 -122t80.5 -311q0 -112 -30.5 -206t-82 -154.5t-116 -94t-133.5 -33.5q-45 0 -92.5 15t-66.5 43v-467q0 -18 12.5 -34t45.5 -17l30 -2l1 -16h-340l1 16l30 2q33 1 45.5 17t12.5 34v1121q0 48 -12 69t-45 30l-87 20l54 15l252 73l-4 -156v-60
q127 218 244 218zM471 0q51 0 91 57.5t60 149.5t20 201q0 161 -53 266.5t-142 105.5q-10 0 -20 -2t-20 -8.5t-17.5 -11t-17.5 -15.5l-15 -16.5t-15.5 -19.5t-14 -19t-14.5 -21t-13 -19v-445q29 -84 75 -143.5t96 -59.5z" />
    <glyph glyph-name="q" unicode="q" horiz-adv-x="796" 
d="M724 -298q0 -63 174 -112l-76 -23l-260 -77v680q-114 -196 -240 -196q-120 0 -200.5 122t-80.5 311q0 112 30.5 206t82 154.5t116 94t133.5 33.5q53 0 129.5 -30t107.5 -72l63 102h21v-1193zM562 202v468q-28 79 -74 131t-97 52q-52 0 -91 -52.5t-59.5 -140t-20.5 -196.5
q0 -161 53 -266.5t142 -105.5q43 0 77.5 29t69.5 81z" />
    <glyph glyph-name="r" unicode="r" horiz-adv-x="595" 
d="M290 505q35 201 106 295.5t196 94.5v-140q-60 17 -105.5 7.5t-77.5 -41t-54 -72.5t-35 -86.5t-19.5 -83.5t-8.5 -63l-2 -24v-321q0 -22 14.5 -34t58.5 -15l42 -2v-19l-354 -1l1 19l30 2q54 4 54 47v621q0 48 -12 69t-45 30l-73 21l292 87l-10 -285z" />
    <glyph glyph-name="s" unicode="s" horiz-adv-x="587" 
d="M523 825l-26 -197h-8l-92 193q-36 47 -96 52q-56 0 -93 -39q-38 -40 -35 -94q0 -103 183 -222q187 -122 187 -267q3 -117 -79 -199q-83 -83 -199 -81q-112 -2 -214 47l6 258h11l40 -118q25 -73 68 -115.5t92 -42.5q63 0 101.5 38t40.5 111q4 112 -176 233
q-183 123 -183 260q-3 103 70 179q72 75 176 77q54 0 120 -18t106 -55z" />
    <glyph glyph-name="t" unicode="t" horiz-adv-x="557" 
d="M603 807l-315 1l-11 -585q-3 -144 104 -144q22 0 44 6.5t50 24t51 57.5t35 99h15q-3 -9 -10.5 -41t-12.5 -48.5t-17 -47.5t-24.5 -49t-34 -41.5t-47 -36.5t-62 -22t-80.5 -9q-84 0 -129 58t-44 178l10 599l-115 2l5 5l90 83l191 198l-2 -37l-4 -187l-2 -38h315v-25z" />
    <glyph glyph-name="u" unicode="u" horiz-adv-x="843" 
d="M760 81l82 -22l-50 -13l-252 -73l2 213l-6 -10q-75 -95 -135 -150t-117 -55q-183 0 -183 270v560q0 45 -53 49l-31 2l-1 18h247v-586q0 -100 27.5 -144.5t92.5 -44.5t157 114v592q0 45 -53 49l-31 2v18h247v-690q0 -48 12 -69t45 -30z" />
    <glyph glyph-name="v" unicode="v" horiz-adv-x="720" 
d="M480 869l245 1l-1 -18l-14 -2q-44 -6 -67 -46.5t-57 -161.5l-180 -642h-90l-216 723q-21 71 -38 97t-52 30l-14 2v18h332l-1 -18l-22 -2q-72 -6 -44 -106l161 -578l14 46l116 423q32 116 22 162.5t-65 51.5l-28 2z" />
    <glyph glyph-name="w" unicode="w" horiz-adv-x="1130" 
d="M892 869l245 1l-2 -18l-14 -2q-44 -6 -67 -46.5t-57 -161.5l-179 -642h-91l-165 555l-155 -555h-91l-216 723q-21 71 -38 97t-52 30l-14 2v18h332v-18l-23 -2q-72 -6 -44 -106l161 -578l14 46l109 398l-34 113q-21 71 -37.5 97t-51.5 30l-15 2v18h333l-1 -18l-22 -2
q-73 -6 -45 -106l162 -578l14 46l116 423q32 116 22 162.5t-65 51.5l-29 2v18z" />
    <glyph glyph-name="x" unicode="x" horiz-adv-x="712" 
d="M399 21q80 10 14 139l-106 205l-93 -169q-89 -164 22 -175l22 -2l1 -19h-255v19l14 2q40 6 79.5 49t95.5 145l100 179l-153 299q-44 89 -66 121t-48 36l-14 2l-1 18h332l-1 -18l-19 -2q-83 -11 -16 -141l90 -177l77 143q90 166 -8 175l-23 2v18h256l-2 -18l-14 -2
q-42 -7 -86.5 -49.5t-98.5 -140.5l-85 -155l167 -329q44 -87 66 -119t48 -36l14 -2v-19h-328v19z" />
    <glyph glyph-name="y" unicode="y" horiz-adv-x="727" 
d="M488 870h244l-2 -18l-14 -2q-44 -6 -67 -46.5t-57 -161.5l-154 -541l-150 -510h-193l282 390l-7 16l-264 726q-25 69 -44 96t-54 31l-14 2v18h345l-1 -18l-23 -2q-72 -6 -38 -106l165 -468l13 -32l105 392q31 118 21.5 163.5t-64.5 50.5l-29 2v18zM438 101l-25 -87z" />
    <glyph glyph-name="z" unicode="z" horiz-adv-x="659" 
d="M618 323h11l-63 -324h-537v27l423 826h-26q-153 0 -226 -54t-103 -175l-19 -73h-15v320h560v-27l-418 -817l30 -2q142 0 221 55.5t127 165.5z" />
    <glyph glyph-name="braceleft" unicode="{" horiz-adv-x="409" 
d="M458 1353q-90 0 -137.5 -48.5t-47.5 -141.5q0 -71 32 -190.5t32 -174.5q0 -105 -67.5 -174t-150.5 -85q83 -16 150.5 -85t67.5 -174q0 -56 -32 -175t-32 -189q0 -94 47.5 -142.5t137.5 -48.5v-21q-181 0 -262 58.5t-81 197.5q0 75 38 198t38 179q0 75 -33.5 129t-98.5 63
v21q65 9 98.5 63t33.5 129q0 56 -38 179t-38 198q0 139 81 197t262 58v-21z" />
    <glyph glyph-name="verticalbar" unicode="|" horiz-adv-x="194" 
d="M114 -116h-34v1490h34v-1490z" />
    <glyph glyph-name="braceright" unicode="}" horiz-adv-x="411" 
d="M351 529q-65 -9 -98.5 -63t-33.5 -129q0 -56 38.5 -179t38.5 -198q0 -139 -81 -197.5t-262 -58.5v22q90 0 136.5 48.5t46.5 141.5q0 70 -31.5 189t-31.5 175q0 105 67.5 173.5t151.5 85.5q-84 17 -151.5 85.5t-67.5 173.5q0 56 31.5 175t31.5 190q0 93 -46.5 141.5
t-136.5 48.5v21q181 0 262 -58t81 -197q0 -75 -38.5 -198t-38.5 -179q0 -75 33.5 -129t98.5 -63v-21z" />
    <glyph glyph-name="asciitilde" unicode="~" horiz-adv-x="720" 
d="M657 754l17 -5q-11 -113 -46.5 -168.5t-109.5 -55.5q-52 0 -117.5 30.5t-126 61t-98.5 30.5q-43 0 -69.5 -29t-42.5 -93l-17 5q10 113 46 168.5t110 55.5q41 0 91.5 -19t89.5 -41.5t84.5 -41.5t76.5 -19q43 0 69.5 28.5t42.5 92.5z" />
    <glyph glyph-name="nonbreakingspace" unicode="&#xa0;" horiz-adv-x="430" 
 />
    <glyph glyph-name="sterling" unicode="&#xa3;" horiz-adv-x="882" 
d="M816 335h14l-7 -67q-3 -31 -5.5 -51t-9.5 -54t-16 -56.5t-25 -49.5t-36 -43.5t-50 -27.5t-66 -11q-70 0 -215.5 48.5t-178.5 48.5q-43 -2 -79.5 -24t-58.5 -59l-24 55q35 28 59.5 52.5t51.5 62t41 85.5t14 105q0 41 -9.5 93.5t-17.5 82.5t-27 98h-103v32h95
q-41 132 -47 268q0 164 86.5 270.5t221.5 106.5q61 0 117 -23.5t97 -62.5t69 -76.5t48 -77.5l-18 -14q-49 72 -110.5 110t-119.5 38q-74 0 -127.5 -62t-53.5 -186q0 -34 6 -77.5t10 -65.5t18 -81t16 -67h269v-31h-261q16 -66 19 -141q-1 -73 -34 -139t-91 -111
q65 -3 192.5 -38.5t180.5 -35.5q36 0 62.5 10t42.5 30t25 37.5t18 45.5z" />
    <glyph glyph-name="softhyphen" unicode="&#xad;" horiz-adv-x="0" 
 />
    <glyph glyph-name="Agrave" unicode="&#xc0;" 
d="M703 1341h-32l-493 303l139 40zM899 20l47 -4v-16h-434l1 16l59 4q82 5 56 116l-102 407h-271l-83 -307q-30 -94 -8.5 -152.5t105.5 -65.5l23 -2v-16h-310v16l16 2q37 5 57 19.5t44 67t54 161.5l230 836l-48 168h195l287 -1130q17 -66 32.5 -91.5t49.5 -28.5zM262 567
h258l-121 498l-5 -15z" />
    <glyph glyph-name="Aacute" unicode="&#xc1;" 
d="M693 1644l-493 -303h-32l386 343zM899 20l47 -4v-16h-434l1 16l59 4q82 5 56 116l-102 407h-271l-83 -307q-30 -94 -8.5 -152.5t105.5 -65.5l23 -2v-16h-310v16l16 2q37 5 57 19.5t44 67t54 161.5l230 836l-48 168h195l287 -1130q17 -66 32.5 -91.5t49.5 -28.5zM262 567
h258l-121 498l-5 -15z" />
    <glyph glyph-name="Acircumflex" unicode="&#xc2;" 
d="M446 1588l-254 -245h-36l290 401l290 -401h-36zM899 20l47 -4v-16h-434l1 16l59 4q82 5 56 116l-102 407h-271l-83 -307q-30 -94 -8.5 -152.5t105.5 -65.5l23 -2v-16h-310v16l16 2q37 5 57 19.5t44 67t54 161.5l230 836l-48 168h195l287 -1130q17 -66 32.5 -91.5
t49.5 -28.5zM262 567h258l-121 498l-5 -15z" />
    <glyph glyph-name="Atilde" unicode="&#xc3;" 
d="M358 1426q-29 11 -71.5 11.5t-90 -19t-66.5 -61.5l-10 3q17 45 41.5 77.5t50 48.5t52 25t50 9.5t42 -1t29.5 -5.5l11 -3l172 -66q19 -8 51.5 -9.5t67.5 4.5t66 25t43 49l11 -5q-24 -62 -61 -100t-73.5 -48.5t-69 -12.5t-53.5 4l-20 6zM899 20l47 -4v-16h-434l1 16l59 4
q82 5 56 116l-102 407h-271l-82 -307q-17 -64 -17 -110.5t28 -74.5t85 -33l23 -2v-16h-310v16l16 2q37 5 57 19.5t44 67t54 161.5l230 836l-48 168h195l287 -1130q17 -66 32.5 -91.5t49.5 -28.5zM262 567h258l-121 498l-5 -15z" />
    <glyph glyph-name="Adieresis" unicode="&#xc4;" 
d="M274 1447q-35 0 -60 25.5t-25 60.5q0 26 14.5 47.5t38.5 32.5q53 23 94 -18q19 -19 24 -45t-5 -50q-11 -24 -33 -38.5t-48 -14.5zM584 1447q-34 1 -58.5 26.5t-24.5 60.5q0 34 24 59t59 27q36 0 61 -25t25 -61t-25 -61.5t-61 -25.5zM899 20l47 -4v-16h-434l1 16l59 4
q82 5 56 116l-102 407h-271l-83 -307q-30 -94 -8.5 -152.5t105.5 -65.5l23 -2v-16h-310v16l16 2q37 5 57 19.5t44 67t54 161.5l230 836l-48 168h195l287 -1130q17 -66 32.5 -91.5t49.5 -28.5zM262 567h258l-121 498l-5 -15z" />
    <glyph glyph-name="Aring" unicode="&#xc5;" 
d="M588 1433q-1 -67 -48 -114.5t-115 -48.5q-67 0 -115 48t-48 115q0 68 48 116t115 48t115 -48t48 -116zM425 1289q60 0 102.5 42.5t42.5 102.5q0 44 -24.5 80.5t-65.5 53.5q-40 17 -84 8.5t-75 -39.5t-39.5 -75t8.5 -84q17 -41 54 -65t81 -24zM899 20l47 -4v-16h-434l1 16
l59 4q82 5 56 116l-102 407h-271l-83 -307q-30 -94 -8.5 -152.5t105.5 -65.5l23 -2v-16h-310v16l16 2q37 5 57 19.5t44 67t54 161.5l230 836l-48 168h195l287 -1130q17 -66 32.5 -91.5t49.5 -28.5zM262 567h258l-122 498l-4 -15z" />
    <glyph glyph-name="AE" unicode="&#xc6;" horiz-adv-x="1300" 
d="M1247 399l27 -1l-122 -398h-743v16l61 6q23 0 37 14q15 15 15 37v470h-267l-83 -307q-30 -94 -8.5 -152.5t105.5 -65.5l23 -2v-16h-310v16l16 2q37 5 57 19.5t44 67t54 161.5l275 1004h5h715l93 -390h-21q-17 70 -55 133.5t-96 116t-143 83.5t-185 31h-38l2 -664v-10h426
v-27h-426v-4l-1 -523h25q124 1 234.5 53.5t184.5 139.5t99 190zM262 567h260v630q0 17 -12 31.5t-41 17.5l-21 3z" />
    <glyph glyph-name="Ccedilla" unicode="&#xc7;" horiz-adv-x="921" 
d="M817 280l35 110h18v-319q-57 -32 -156 -66t-169 -34q-4 0 -12.5 0.5t-12.5 0.5l-20 -56q89 17 136 -27q38 -36 30 -88q-13 -110 -139 -110q-61 0 -88 32l-11 13l50 -10l-1 -6l4 -3q1 3 0 6q22 -13 46 -11q34 -3 56 19q24 24 22 56q0 45 -33 73q-37 29 -103 13l-11 -3
l34 104q-211 20 -332 194t-121 460q0 305 138.5 487.5t379.5 182.5q55 0 156 -44.5t160 -79.5l-25 -300h-17l-73 297q-29 27 -96.5 57t-108.5 30q-82 0 -143 -47.5t-96 -133.5t-51.5 -192.5t-16.5 -236.5q0 -192 35 -335.5t107 -225.5t173 -82q93 0 154 71t102 204z" />
    <glyph glyph-name="Egrave" unicode="&#xc8;" horiz-adv-x="907" 
d="M666 1341h-32l-493 303l138 40zM856 399l26 -1l-122 -398h-743l1 16l61 6q23 0 37 14t14 37v1124q0 17 -12 31.5t-41 17.5l-61 6l1 18h739l94 -390h-22q-17 70 -54.5 133.5t-95.5 116t-143 83.5t-185 31h-39l2 -571v-11h426v-27h-426v-3l-1 -616h26q124 1 234.5 53.5
t184.5 139.5t99 190z" />
    <glyph glyph-name="Eacute" unicode="&#xc9;" horiz-adv-x="907" 
d="M712 1644l-493 -303h-32l386 343zM856 399l26 -1l-122 -398h-743l1 16l61 6q23 0 37 14t14 37v1124q0 17 -12 31.5t-41 17.5l-61 6l1 18h739l94 -390h-22q-17 70 -54.5 133.5t-95.5 116t-143 83.5t-185 31h-39l2 -571v-11h426v-27h-426v-3l-1 -616h26q124 1 234.5 53.5
t184.5 139.5t99 190z" />
    <glyph glyph-name="Ecircumflex" unicode="&#xca;" horiz-adv-x="907" 
d="M424 1588l-254 -245h-37l291 401l290 -401h-36zM856 399l26 -1l-122 -398h-743l1 16l61 6q23 0 37 14t14 37v1124q0 17 -12 31.5t-41 17.5l-61 6l1 18h739l94 -390h-22q-17 70 -54.5 133.5t-95.5 116t-143 83.5t-185 31h-39l2 -571v-11h426v-27h-426v-3l-1 -616h26
q124 1 234.5 53.5t184.5 139.5t99 190z" />
    <glyph glyph-name="Edieresis" unicode="&#xcb;" horiz-adv-x="907" 
d="M246 1447q-34 1 -58.5 26.5t-24.5 60.5q0 34 24 59t59 27q36 0 61 -25t25 -61t-25 -61.5t-61 -25.5zM557 1447q-36 0 -61 25.5t-25 61.5t25 61t61 25t61.5 -25t25.5 -61t-25.5 -61.5t-61.5 -25.5zM856 399l26 -1l-122 -398h-743l1 16l61 6q23 0 37 14t14 37v1124
q0 17 -12 31.5t-41 17.5l-61 6l1 18h739l94 -390h-22q-17 70 -54.5 133.5t-95.5 116t-143 83.5t-185 31h-39l2 -571v-11h426v-27h-426v-3l-1 -616h26q124 1 234.5 53.5t184.5 139.5t99 190z" />
    <glyph glyph-name="Igrave" unicode="&#xcc;" horiz-adv-x="460" 
d="M106 1684l386 -343h-32l-493 303zM321 73q0 -46 57 -51l67 -6v-16h-432l1 16l67 6q58 5 58 51v1124q0 17 -13.5 31.5t-46.5 17.5l-67 6l1 18h431l-1 -18l-67 -6q-55 -4 -55 -49v-1124z" />
    <glyph glyph-name="Iacute" unicode="&#xcd;" horiz-adv-x="460" 
d="M507 1644l-493 -303h-32l386 343zM322 73q0 -46 57 -51l67 -6v-16h-432l1 16l67 6q57 5 57 51v1124q0 44 -59 49l-67 6l1 18h431l-1 -18l-67 -6q-55 -4 -55 -49v-1124z" />
    <glyph glyph-name="Icircumflex" unicode="&#xce;" horiz-adv-x="458" 
d="M219 1744l290 -401h-36l-254 245l-254 -245h-37zM321 73q0 -46 56 -51l67 -6v-16h-431l1 16l67 6q57 5 57 51v1124q0 44 -59 49l-67 6l1 18h431l-1 -18l-67 -6q-55 -4 -55 -49v-1124z" />
    <glyph glyph-name="Idieresis" unicode="&#xcf;" horiz-adv-x="460" 
d="M156 1533q-1 -35 -26 -59.5t-59 -24.5q-34 -1 -60 24q-25 25 -25 60q-2 35 24 62q24 25 61 25q35 -1 60 -26t25 -61zM381 1450q-38 0 -61 23q-25 25 -25 60q-2 50 42 76q43 26 87 0t42 -76q0 -35 -25 -60q-23 -23 -60 -23zM323 73q0 -46 56 -51l67 -6v-16h-432l1 16l67 6
q58 5 58 51v1124q0 44 -59 49l-67 6v18h431l-1 -18l-67 -6q-54 -4 -54 -49v-1124z" />
    <glyph glyph-name="Ntilde" unicode="&#xd1;" horiz-adv-x="980" 
d="M361 1522q-28 11 -70.5 14t-90.5 -3.5t-91.5 -34t-63.5 -72.5l-13 4q32 85 83.5 137.5t101.5 67.5t95.5 17.5t73.5 -5.5l28 -8l239 -91q27 -11 71.5 -13t92.5 6t91 35t61 68l15 -7q-24 -62 -58.5 -107.5t-70 -67.5t-73 -35t-69.5 -13t-57.5 2.5t-40.5 7.5l-15 4z
M671 1252l-1 18h302v-18l-20 -2q-54 -6 -81 -48t-27 -109v-1101h-102l-538 1103l-13 25v-946q0 -67 30 -110t89 -49l20 -2l2 -16l-306 3v16l21 2q53 6 81.5 49.5t28.5 109.5v973q-41 82 -132 100l-18 2l-1 18h314l475 -988l18 -40v851q0 66 -31.5 108.5t-90.5 48.5z" />
    <glyph glyph-name="Ograve" unicode="&#xd2;" horiz-adv-x="1054" 
d="M839 1341h-32l-493 303l139 40zM533 1298q218 0 350.5 -182.5t132.5 -475.5q0 -173 -62.5 -325.5t-178 -247.5t-257.5 -95q-143 0 -253 83.5t-169 232.5t-59 342q0 129 37 250t101.5 213.5t158 148.5t199.5 56zM527 2q135 0 208.5 168.5t73.5 463.5q0 287 -74.5 461.5
t-207.5 174.5q-134 0 -208.5 -170t-74.5 -464q0 -285 75.5 -459.5t207.5 -174.5z" />
    <glyph glyph-name="Oacute" unicode="&#xd3;" horiz-adv-x="1054" 
d="M754 1644l-493 -303h-32l386 343zM533 1298q218 0 350.5 -182.5t132.5 -475.5q0 -173 -62.5 -325.5t-178 -247.5t-257.5 -95q-143 0 -253 83.5t-169 232.5t-59 342q0 129 37 250t101.5 213.5t158 148.5t199.5 56zM527 2q135 0 208.5 168.5t73.5 463.5q0 287 -74.5 461.5
t-207.5 174.5q-134 0 -208.5 -170t-74.5 -464q0 -285 75.5 -459.5t207.5 -174.5z" />
    <glyph glyph-name="Ocircumflex" unicode="&#xd4;" horiz-adv-x="1054" 
d="M545 1588l-254 -245h-36l290 401l291 -401h-37zM533 1298q218 0 350.5 -182.5t132.5 -475.5q0 -173 -62.5 -325.5t-178 -247.5t-257.5 -95q-143 0 -253 83.5t-169 232.5t-59 342q0 129 37 250t101.5 213.5t158 148.5t199.5 56zM527 2q135 0 208.5 168.5t73.5 463.5
q0 287 -74.5 461.5t-207.5 174.5q-134 0 -208.5 -170t-74.5 -464q0 -285 75.5 -459.5t207.5 -174.5z" />
    <glyph glyph-name="Otilde" unicode="&#xd5;" horiz-adv-x="1056" 
d="M404 1434q-29 11 -71.5 14.5t-90.5 -2.5t-91.5 -33.5t-64.5 -72.5l-13 4q33 85 84.5 137.5t101 67.5t95 17.5t73.5 -5.5l28 -8l241 -94q27 -10 71.5 -11.5t92.5 7t91 35.5t61 68l13 -7q-24 -62 -58 -107.5t-69.5 -67.5t-72.5 -35t-69.5 -13t-58.5 2.5t-41 7.5l-15 4z
M535 1298q218 0 350.5 -182.5t132.5 -475.5q0 -173 -62.5 -325.5t-178 -247.5t-257.5 -95q-143 0 -253 83.5t-169 232.5t-59 342q0 129 37 250t101.5 213.5t158 148.5t199.5 56zM529 2q135 0 208.5 168.5t73.5 463.5q0 287 -74.5 461.5t-207.5 174.5q-134 0 -208.5 -170
t-74.5 -464q0 -285 75.5 -459.5t207.5 -174.5z" />
    <glyph glyph-name="Odieresis" unicode="&#xd6;" horiz-adv-x="1054" 
d="M356 1447q-35 2 -59.5 27t-24.5 60t24.5 59.5t59.5 26.5q36 0 61 -25t25 -61t-25 -61.5t-61 -25.5zM665 1447q-35 1 -59 26.5t-24 60.5t24 59.5t59 26.5q36 0 61.5 -25t25.5 -61t-25.5 -61.5t-61.5 -25.5zM533 1298q218 0 350.5 -182.5t132.5 -475.5q0 -173 -62.5 -325.5
t-178 -247.5t-257.5 -95q-143 0 -253 83.5t-169 232.5t-59 342q0 129 37 250t101.5 213.5t158 148.5t199.5 56zM527 2q135 0 208.5 168.5t73.5 463.5q0 287 -74.5 461.5t-207.5 174.5q-134 0 -208.5 -170t-74.5 -464q0 -285 75.5 -459.5t207.5 -174.5z" />
    <glyph glyph-name="Oslash" unicode="&#xd8;" horiz-adv-x="1302" 
d="M1315 1234l-246 -232q72 -176 69 -362q0 -173 -62.5 -325.5t-178 -248t-257.5 -95.5q-128 0 -229.5 67t-164.5 189l-258 -243l-6 10l259 244q-88 189 -83 392q0 129 37 250t101.5 213.5t158 148.5t199.5 56q137 0 242.5 -74.5t167.5 -209.5l244 229zM366 636
q-1 -130 20 -262l529 499q-27 185 -96 291t-171 106q-134 0 -208 -170t-74 -464zM931 634q0 120 -14 225l-529 -498q30 -168 97 -263.5t163 -95.5q136 0 209.5 168.5t73.5 463.5z" />
    <glyph glyph-name="Ugrave" unicode="&#xd9;" horiz-adv-x="999" 
d="M794 1341h-32l-493 303l139 40zM678 1270l316 1v-19l-21 -2q-107 -12 -107 -149l-2 -634q0 -495 -360 -495q-196 0 -285 106t-89 347v772q0 45 -55 49l-69 6v19h431v-19l-73 -6q-23 -2 -35 -11t-14 -17.5t-2 -20.5v-730q0 -218 63 -316t193 -98q120 0 190 104t70 310
l-2 635q0 66 -33.5 104t-94.5 44l-20 2z" />
    <glyph glyph-name="Uacute" unicode="&#xda;" horiz-adv-x="999" 
d="M807 1644l-493 -303h-32l386 343zM678 1270l316 1v-19l-21 -2q-107 -12 -107 -149l-2 -634q0 -495 -360 -495q-196 0 -285 106t-89 347v772q0 45 -55 49l-69 6v19h431v-19l-73 -6q-23 -2 -35 -11t-14 -17.5t-2 -20.5v-730q0 -218 63 -316t193 -98q120 0 190 104t70 310
l-2 635q0 66 -33.5 104t-94.5 44l-20 2z" />
    <glyph glyph-name="Ucircumflex" unicode="&#xdb;" horiz-adv-x="999" 
d="M529 1588l-254 -245h-36l290 401l290 -401h-36zM678 1270l316 1v-19l-21 -2q-107 -12 -107 -149l-2 -634q0 -495 -360 -495q-196 0 -285 106t-89 347v772q0 45 -55 49l-69 6v19h431v-19l-73 -6q-23 -2 -35 -11t-14 -17.5t-2 -20.5v-730q0 -218 63 -316t193 -98
q120 0 190 104t70 310l-2 635q0 66 -33.5 104t-94.5 44l-20 2z" />
    <glyph glyph-name="Udieresis" unicode="&#xdc;" horiz-adv-x="999" 
d="M371 1447q-35 2 -59.5 27t-24.5 60t24.5 59.5t59.5 26.5q36 0 61 -25t25 -61t-25 -61.5t-61 -25.5zM680 1447q-35 1 -59 26.5t-24 60.5t24 59.5t59 26.5q36 0 61.5 -25t25.5 -61t-25.5 -61.5t-61.5 -25.5zM678 1270l316 1v-19l-21 -2q-107 -12 -107 -149l-2 -634
q0 -495 -360 -495q-196 0 -285 106t-89 347v772q0 45 -55 49l-69 6v19h431v-19l-73 -6q-23 -2 -35 -11t-14 -17.5t-2 -20.5v-730q0 -218 63 -316t193 -98q120 0 190 104t70 310l-2 635q0 66 -33.5 104t-94.5 44l-20 2z" />
    <glyph glyph-name="Yacute" unicode="&#xdd;" horiz-adv-x="878" 
d="M774 1644l-493 -303h-32l386 343zM613 1270h285v-18l-16 -2q-49 -6 -90 -61.5t-99 -209.5l-150 -398v-508q0 -46 62 -51l79 -6v-16h-469l2 16l79 6q35 3 49.5 18t14.5 33v486l-224 544q-33 80 -57.5 110.5t-62.5 34.5l-36 4v18h425l-1 -18l-34 -2q-32 -2 -47 -19
t-11.5 -58.5t31.5 -109.5l167 -411l13 -35l162 417q39 91 29 150t-80 66l-21 2v18z" />
    <glyph glyph-name="germandbls" unicode="&#xdf;" horiz-adv-x="837" 
d="M523 851q108 -87 194 -230.5t86 -280.5q0 -154 -79 -261t-205 -107q-77 0 -129 48.5t-52 114.5l103 -75q24 -50 80 -53q53 0 87.5 62t34.5 161q0 151 -75 302.5t-214 263.5v20q193 47 193 293q0 88 -39 152t-95 64q-73 0 -107.5 -71.5t-34.5 -231.5v-1021h-255v17l31 2
q33 1 47 16.5t14 33.5v885q0 202 92 308t233 106q130 0 209.5 -70.5t79.5 -191.5q0 -95 -56.5 -161.5t-142.5 -94.5z" />
    <glyph glyph-name="agrave" unicode="&#xe0;" horiz-adv-x="755" 
d="M610 951h-32l-493 304l138 40zM729 125l11 -8q-21 -36 -31 -52t-31 -43t-43 -38.5t-48 -11.5q-49 0 -80 33.5t-40 98.5l-4 52q-43 -73 -114 -128.5t-155 -55.5q-56 0 -101.5 45t-60.5 116.5t12 158.5l429 160v20h-1l3 92q4 153 -30.5 222.5t-105.5 69.5q-46 0 -78 -57.5
t-20 -128.5l-152 -3q0 85 103.5 158.5t230.5 73.5q125 0 173.5 -75.5t41.5 -272.5l-14 -384q-3 -91 40 -91q34 0 65 49zM465 211l7 217l-284 -106q-16 -93 24.5 -170t102.5 -78q43 -1 83.5 40.5t66.5 96.5z" />
    <glyph glyph-name="aacute" unicode="&#xe1;" horiz-adv-x="755" 
d="M624 1255l-493 -304h-32l386 344zM729 125l11 -8q-21 -36 -31 -52t-31 -43t-43 -38.5t-48 -11.5q-49 0 -80 33.5t-40 98.5l-4 52q-43 -73 -114 -128.5t-155 -55.5q-56 0 -101.5 45t-60.5 116.5t12 158.5l429 160v20h-1l3 92q4 153 -30.5 222.5t-105.5 69.5
q-46 0 -77.5 -57.5t-19.5 -128.5l-153 -3q0 85 103.5 158.5t230.5 73.5q125 0 173.5 -75.5t41.5 -272.5l-14 -384q-3 -91 41 -91q33 0 64 49zM465 211l7 217l-284 -106q-16 -93 24.5 -170t102.5 -78q43 -1 83.5 40.5t66.5 96.5z" />
    <glyph glyph-name="acircumflex" unicode="&#xe2;" horiz-adv-x="757" 
d="M374 1148l-254 -246h-36l290 402l291 -402h-37zM731 125l11 -8q-21 -36 -31 -52t-31 -43t-43 -38.5t-48 -11.5q-49 0 -80 33.5t-40 98.5l-4 52q-43 -73 -114 -128.5t-155 -55.5q-56 0 -101.5 45t-60.5 116.5t12 158.5l429 160l1 20h-1l3 92q8 292 -137 292
q-46 0 -77.5 -57.5t-19.5 -128.5l-153 -3q0 85 103.5 158.5t230.5 73.5q125 0 173.5 -75.5t41.5 -272.5l-14 -384q-3 -91 41 -91q33 0 64 49zM467 211l7 217l-283 -106q-16 -93 24.5 -170t102.5 -78q42 -1 82 40.5t67 96.5z" />
    <glyph glyph-name="atilde" unicode="&#xe3;" horiz-adv-x="755" 
d="M297 1075q-29 11 -71 12t-89 -18t-66 -61l-9 3q23 60 59.5 97t72 47.5t67.5 13t52 -2.5l20 -6l171 -67q29 -7 71.5 -8.5t89 18.5t63.5 58l9 -3q-23 -60 -59.5 -97.5t-72.5 -48t-68 -12t-52 3.5l-20 6zM729 125l11 -8q-21 -36 -31 -52t-31 -43t-43 -38.5t-48 -11.5
q-49 0 -80 33.5t-40 98.5l-4 52q-43 -73 -114 -128.5t-155 -55.5q-56 0 -101.5 45t-60.5 116.5t12 158.5l429 160v20h-1l3 92q4 153 -30.5 222.5t-105.5 69.5q-46 0 -77.5 -57.5t-19.5 -128.5l-153 -3q0 85 103.5 158.5t230.5 73.5q125 0 173.5 -75.5t41.5 -272.5l-14 -384
q-3 -91 41 -91q33 0 64 49zM465 211l7 217l-283 -106q-16 -93 24.5 -170t102.5 -78q42 -1 82 40.5t67 96.5z" />
    <glyph glyph-name="adieresis" unicode="&#xe4;" horiz-adv-x="755" 
d="M202 1028q-35 1 -60 26.5t-25 60.5t25 60t60 26q35 -1 60 -26t25 -60t-25 -60.5t-60 -26.5zM512 1028q-35 2 -59 27t-24 60t24 59.5t59 26.5q35 -1 60 -26t25 -60t-25 -60.5t-60 -26.5zM729 125l11 -8q-21 -36 -31 -52t-31 -43t-43 -38.5t-48 -11.5q-49 0 -80 33.5
t-40 98.5l-4 52q-43 -73 -114 -128.5t-155 -55.5q-56 0 -101.5 45t-60.5 116.5t12 158.5l429 160v20h-1l3 92q4 153 -30.5 222.5t-105.5 69.5q-46 0 -77.5 -57.5t-19.5 -128.5l-153 -3q0 85 103.5 158.5t230.5 73.5q125 0 173.5 -75.5t41.5 -272.5l-14 -384q-3 -91 41 -91
q33 0 64 49zM465 211l7 217l-283 -106q-16 -93 24.5 -170t102.5 -78q42 -1 82 40.5t67 96.5z" />
    <glyph glyph-name="aring" unicode="&#xe5;" horiz-adv-x="755" 
d="M385 927q-58 0 -101 41q-41 39 -41 100q0 59 41.5 100.5t99.5 41.5q59 0 100.5 -41.5t41.5 -99.5q0 -59 -41.5 -100.5t-99.5 -41.5zM385 1186q-49 0 -84 -35q-34 -34 -34 -83t34 -83t83 -34t83 34t34 83t-33.5 83.5t-82.5 34.5zM729 125l11 -8q-21 -36 -31 -52t-31 -43
t-43 -38.5t-48 -11.5q-49 0 -80 33.5t-40 98.5l-4 52q-43 -73 -114 -128.5t-155 -55.5q-56 0 -101.5 45t-60.5 116.5t12 158.5l429 160v20h-1l3 92q4 153 -30.5 222.5t-105.5 69.5q-46 0 -78 -57.5t-20 -128.5l-152 -3q0 85 103.5 158.5t230.5 73.5q125 0 173.5 -75.5
t41.5 -272.5l-14 -384q-3 -91 40 -91q34 0 65 49zM465 211l7 217l-284 -106q-16 -93 25 -170t103 -78q42 -1 82 40.5t67 96.5z" />
    <glyph glyph-name="ae" unicode="&#xe6;" horiz-adv-x="1112" 
d="M1066 365h17q-8 -102 -39 -181.5t-77.5 -128t-102.5 -73.5t-120 -25q-89 0 -160 54t-112 149q-50 -75 -125.5 -135t-152.5 -60q-56 0 -101.5 45t-60.5 116t12 158l382 143l47 17l1 20h-1l2 92q2 54 -1 89q-14 203 -135 203q-46 0 -78 -57.5t-20 -128.5l-152 -2
q0 85 103.5 158t230.5 73q128 0 175 -78q86 70 195 70q102 3 171 -71t60 -175h-406q-37 -188 10 -370q26 -90 76 -136.5t119 -45.5q27 0 52 5.5t58 23t58 46t46.5 82t28.5 123.5zM793 847q-51 0 -92 -40t-67 -113q-1 -3 -4.5 -14.5t-5.5 -17.5h255q19 92 -12 138.5t-74 46.5
zM465 203l7 217l-47 -17l-236 -89q-16 -93 24 -169t102 -78h1q41 -1 78.5 35.5t64.5 88.5v1q1 2 3 5.5t3 5.5z" />
    <glyph glyph-name="ccedilla" unicode="&#xe7;" horiz-adv-x="727" 
d="M360 -28h-3l-15 -43q89 17 135 -26q38 -36 30 -88q-13 -110 -139 -110q-61 0 -88 31l-11 14l50 -10l-1 -7l5 -2q1 1 -1 5q22 -13 46 -11q34 -3 57 20t21 56q0 45 -32 72q-37 29 -104 13l-11 -2l30 90q-127 15 -207.5 138t-80.5 301q0 205 105.5 345.5t262.5 140.5
q103 0 166 -53t63 -138l-150 12q14 72 -12 107t-67 35q-84 0 -137.5 -101t-53.5 -269q0 -182 61.5 -287t159.5 -105q27 0 52.5 5t59 22.5t59 46.5t46 82t26.5 124h17q-8 -102 -39 -181.5t-77.5 -128t-102.5 -73.5t-120 -25z" />
    <glyph glyph-name="egrave" unicode="&#xe8;" horiz-adv-x="729" 
d="M655 951h-32l-493 304l139 40zM682 380h17q-8 -102 -39 -181.5t-77.5 -128t-102.5 -73.5t-120 -25q-139 0 -229 126t-90 315q0 205 105.5 345.5t262.5 140.5q100 3 170 -72q69 -74 61 -174h-406q-16 -77 -16 -161q0 -186 58.5 -289.5t162.5 -102.5q27 0 52 5.5t58 23
t58 46t46.5 82t28.5 123.5zM495 677q19 92 -12.5 138.5t-73.5 46.5q-57 0 -102 -48.5t-68 -136.5h256z" />
    <glyph glyph-name="eacute" unicode="&#xe9;" horiz-adv-x="729" 
d="M711 1255l-493 -304h-32l386 344zM439 100q27 0 52 5.5t58 23t58 46t46.5 82t28.5 123.5h17q-8 -102 -39 -181.5t-77.5 -128t-102.5 -73.5t-120 -25q-139 0 -229 126t-90 315q0 205 105.5 345.5t262.5 140.5q100 3 170 -72q69 -74 61 -174h-406q-16 -77 -16 -161
q0 -186 58.5 -289.5t162.5 -102.5zM409 862q-57 0 -102 -48.5t-68 -136.5h256q19 92 -12.5 138.5t-73.5 46.5z" />
    <glyph glyph-name="ecircumflex" unicode="&#xea;" horiz-adv-x="729" 
d="M397 1148l-254 -246h-36l290 402l290 -402h-36zM682 380h17q-8 -102 -39 -181.5t-77.5 -128t-102.5 -73.5t-120 -25q-139 0 -229 126t-90 315q0 205 105.5 345.5t262.5 140.5q100 3 170 -72q69 -74 61 -174h-406q-16 -77 -16 -161q0 -186 58.5 -289.5t162.5 -102.5
q27 0 52 5.5t58 23t58 46t46.5 82t28.5 123.5zM409 862q-57 0 -101.5 -48.5t-67.5 -136.5h255q19 92 -12.5 138.5t-73.5 46.5z" />
    <glyph glyph-name="edieresis" unicode="&#xeb;" horiz-adv-x="727" 
d="M682 376h17q-8 -102 -39 -181.5t-77.5 -128t-102.5 -73.5t-120 -25q-139 0 -229 126t-90 315q0 205 105.5 345.5t262.5 140.5q101 3 170 -71t61 -175h-406q-16 -77 -16 -160q0 -186 58.5 -289.5t162.5 -102.5q27 0 52 5t58 22.5t58 46.5t46.5 82t28.5 123zM409 859
q-57 0 -101.5 -48.5t-67.5 -136.5h255q19 92 -12.5 138.5t-73.5 46.5zM255 968q-35 0 -60 25t-25 60q0 26 14.5 48t38.5 33q24 10 49.5 5t44.5 -24t24 -45t-5 -50t-32.5 -38t-48.5 -14zM565 968q-35 2 -59.5 26.5t-24.5 59.5t24.5 60t59.5 27q50 2 76 -43q26 -44 0 -88
t-76 -42z" />
    <glyph glyph-name="igrave" unicode="&#xec;" horiz-adv-x="407" 
d="M73 1295l387 -344h-32l-494 304zM356 22l32 -2v-20h-338l1 20l32 2q23 2 35 10.5t14.5 16.5t2.5 20v620q0 48 -12 69t-45 30l-75 20l295 88v-827q0 -42 58 -47z" />
    <glyph glyph-name="iacute" unicode="&#xed;" horiz-adv-x="407" 
d="M298 1295l139 -40l-493 -304h-32zM356 22l32 -2v-20h-338l1 20l32 2q23 2 35 10.5t14.5 16.5t2.5 20v620q0 48 -12 69t-45 30l-75 20l295 88v-827q0 -42 58 -47z" />
    <glyph glyph-name="icircumflex" unicode="&#xee;" horiz-adv-x="405" 
d="M210 1304l291 -402h-37l-254 246l-254 -246h-36zM355 22l33 -2v-20h-338v20l33 2q23 2 35 10.5t14.5 16.5t2.5 20v620q0 48 -12 69t-45 30l-76 20l295 88v-827q0 -42 58 -47z" />
    <glyph glyph-name="idieresis" unicode="&#xef;" horiz-adv-x="407" 
d="M111 1114q0 -35 -25 -60.5t-60 -25.5t-60 25.5t-25 60.5t25 60t60 25t60 -25t25 -60zM336 1201q50 2 76 -43q26 -44 0 -87q-26 -45 -76 -43q-35 2 -59.5 27t-24.5 60t24.5 59.5t59.5 26.5zM357 22l33 -2v-20h-339l1 20l33 2q23 2 35 10.5t14 16.5t2 20v620q0 49 -12 69.5
t-44 29.5l-76 20l295 88v-827q0 -42 58 -47z" />
    <glyph glyph-name="ntilde" unicode="&#xf1;" horiz-adv-x="835" 
d="M324 1076q-30 11 -73 12.5t-90.5 -18t-67.5 -62.5l-9 3q24 61 61 99t73.5 49t69 13t52.5 -4l21 -5l175 -68q20 -8 52 -9t67 4.5t66 24.5t44 49l10 -3q-24 -62 -61.5 -100.5t-74 -49t-69.5 -12.5t-54 4l-20 6zM788 22l30 -2v-19h-333v19l31 2q55 4 55 48v516
q0 100 -27.5 144.5t-92.5 44.5q-13 0 -27.5 -6.5t-25.5 -14.5t-27.5 -25.5t-24.5 -27.5t-27 -33.5t-25 -31.5v-566q0 -44 55 -48l30 -2v-19h-333v19l31 2q55 2 55 48v619q0 48 -12.5 69.5t-44.5 30.5l-67 20l286 88l-6 -157v-75q98 125 140 166q72 68 123 68q182 0 182 -271
v-558q0 -44 55 -48z" />
    <glyph glyph-name="ograve" unicode="&#xf2;" horiz-adv-x="802" 
d="M648 951h-32l-493 304l139 40zM405 899q159 0 258 -132.5t99 -330.5q0 -197 -103 -330.5t-262 -133.5t-258.5 133t-99.5 331q0 197 103 330t263 133zM405 9q84 0 131 113.5t47 280.5q0 88 -9.5 165t-29.5 145.5t-58 108.5t-90 40q-84 0 -131 -113.5t-47 -280.5
q0 -88 9.5 -165t29.5 -145.5t58 -108.5t90 -40z" />
    <glyph glyph-name="oacute" unicode="&#xf3;" horiz-adv-x="802" 
d="M638 1255l-493 -304h-32l386 344zM405 899q159 0 258 -132.5t99 -330.5q0 -197 -103 -330.5t-262 -133.5t-258.5 133t-99.5 331q0 197 103 330t263 133zM405 9q84 0 131 113.5t47 280.5q0 88 -9.5 165t-29.5 145.5t-58 108.5t-90 40q-84 0 -131 -113.5t-47 -280.5
q0 -88 9.5 -165t29.5 -145.5t58 -108.5t90 -40z" />
    <glyph glyph-name="ocircumflex" unicode="&#xf4;" horiz-adv-x="806" 
d="M415 1148l-254 -246h-36l290 402l290 -402h-36zM407 899q159 0 258 -132.5t99 -330.5q0 -197 -103 -330.5t-262 -133.5t-258.5 133t-99.5 331q0 197 103 330t263 133zM407 9q57 0 98.5 55.5t61 143.5t19.5 195q0 88 -9.5 165t-29.5 145.5t-58 108.5t-90 40
q-57 0 -98.5 -55.5t-61 -143.5t-19.5 -195q0 -88 9.5 -165t29.5 -145.5t58 -108.5t90 -40z" />
    <glyph glyph-name="otilde" unicode="&#xf5;" horiz-adv-x="804" 
d="M279 1028q-33 12 -82 13.5t-103.5 -20.5t-76.5 -71l-11 4q27 70 69.5 113.5t84 56t79 15t61.5 -4.5l23 -6l199 -78q23 -8 59.5 -9.5t76.5 5t75.5 28t50.5 55.5l13 -3q-28 -71 -71 -115t-84.5 -56.5t-79 -14t-60.5 5.5l-24 6zM405 899q159 0 258.5 -132.5t99.5 -330.5
q0 -129 -46 -235t-130.5 -167.5t-189.5 -61.5q-159 0 -258 133t-99 331q0 197 102.5 330t262.5 133zM405 9q57 0 98.5 55.5t61 143.5t19.5 195q0 88 -9.5 165t-29.5 145.5t-58 108.5t-90 40q-84 0 -131 -113.5t-47 -280.5q0 -88 9 -165t29.5 -145.5t58 -108.5t89.5 -40z" />
    <glyph glyph-name="odieresis" unicode="&#xf6;" horiz-adv-x="802" 
d="M255 1028q-35 0 -60.5 25.5t-25.5 60.5q0 26 14.5 47.5t38.5 32.5t50 6t45 -24t24 -45t-6 -50t-32.5 -38.5t-47.5 -14.5zM564 1028q-35 2 -59 27t-24 60t24 59.5t59 26.5q50 2 76 -43q26 -44 0 -87q-26 -45 -76 -43zM405 899q159 0 258 -132.5t99 -330.5
q0 -197 -103 -330.5t-262 -133.5t-258.5 133t-99.5 331q0 197 103 330t263 133zM405 9q84 0 131 113.5t47 280.5q0 88 -9.5 165t-29.5 145.5t-58 108.5t-90 40q-84 0 -131 -113.5t-47 -280.5q0 -88 9.5 -165t29.5 -145.5t58 -108.5t90 -40z" />
    <glyph glyph-name="oslash" unicode="&#xf8;" horiz-adv-x="962" 
d="M978 890l-186 -170q72 -133 69 -284q0 -197 -103 -330.5t-262 -133.5q-97 0 -174.5 53t-124.5 145l-197 -181l-6 8l198 183q-56 120 -54 256q0 197 103 330t263 133q90 0 162.5 -45t120.5 -125l184 170zM317 468q0 -82 9 -165l341 315q-41 244 -171 244
q-57 0 -98.5 -55.5t-61 -143.5t-19.5 -195zM683 403q0 108 -14 202l-342 -315q16 -127 59.5 -204t117.5 -77q57 0 98.5 55.5t61 143.5t19.5 195z" />
    <glyph glyph-name="ugrave" unicode="&#xf9;" horiz-adv-x="839" 
d="M659 951h-32l-493 304l139 40zM761 82l82 -21l-49 -14l-252 -73l2 213l-6 -9q-36 -45 -61.5 -75t-60 -63.5t-67.5 -50.5t-63 -17q-183 0 -183 271v558q0 46 -53 50l-31 2l-1 17h247v-585q0 -100 27.5 -144.5t92.5 -44.5t157 114v591q0 46 -54 50l-30 2v17h246v-688
q0 -48 12.5 -69.5t44.5 -30.5z" />
    <glyph glyph-name="uacute" unicode="&#xfa;" horiz-adv-x="839" 
d="M645 1246l-494 -303h-32l387 344zM761 82l82 -21l-49 -14l-252 -73l2 213l-6 -9q-48 -61 -82.5 -99.5t-82.5 -72.5t-88 -34q-182 0 -182 271v558q0 46 -53 50l-31 2l-1 17h247v-585q0 -100 27.5 -144.5t92.5 -44.5t157 114v591q0 46 -53 50l-31 2v17h246v-688
q0 -48 12.5 -69.5t44.5 -30.5z" />
    <glyph glyph-name="ucircumflex" unicode="&#xfb;" horiz-adv-x="837" 
d="M404 1168l-253 -245h-37l290 401l291 -401h-37zM759 82l82 -21l-50 -14l-251 -73l2 213l-6 -9q-48 -61 -82.5 -99.5t-82.5 -72.5t-88 -34q-182 0 -182 271v558q0 46 -53 50l-31 2l-1 17h247v-585q0 -100 27.5 -144.5t92.5 -44.5t157 114v591q0 46 -53 50l-31 2v17h246
v-688q0 -48 12.5 -69.5t44.5 -30.5z" />
    <glyph glyph-name="udieresis" unicode="&#xfc;" horiz-adv-x="839" 
d="M233 1028q-35 2 -59 27t-24 60t24 59.5t59 26.5q50 2 76 -43q26 -44 0 -87q-26 -45 -76 -43zM545 1028q-35 1 -60 26.5t-25 60.5t25 60t60 26q35 -1 60 -26t25 -60t-25 -60.5t-60 -26.5zM761 82l82 -21l-49 -14l-252 -73l2 213l-6 -9q-36 -45 -61.5 -75t-60 -63.5
t-67.5 -50.5t-63 -17q-183 0 -183 271v558q0 46 -53 50l-31 2l-1 17h247v-585q0 -100 27.5 -144.5t92.5 -44.5t157 114v591q0 46 -53 50l-31 2v17h246v-688q0 -48 12.5 -69.5t44.5 -30.5z" />
    <glyph glyph-name="yacute" unicode="&#xfd;" horiz-adv-x="724" 
d="M696 1261l-493 -303h-32l387 343zM488 870h243l-1 -17l-15 -2q-44 -6 -66.5 -46.5t-56.5 -161.5l-154 -541l-151 -509h-193l282 389l-6 17l-264 725q-25 69 -44 96t-54 31l-14 2v17h345l-2 -17l-22 -2q-72 -6 -38 -107l164 -467l13 -31l105 391q31 117 21.5 163t-64.5 51
l-28 2v17zM413 15l25 87v1z" />
    <glyph glyph-name="ydieresis" unicode="&#xff;" horiz-adv-x="724" 
d="M221 1028q-36 0 -61 25t-25 61q0 26 14.5 47.5t38.5 32.5t50 6t45 -24t24 -45t-5 -50q-11 -24 -33 -38.5t-48 -14.5zM530 1028q-35 2 -59 27t-24 60t24 59.5t59 26.5q35 -1 60 -26t25 -60t-25 -60.5t-60 -26.5zM488 870h243l-1 -17l-15 -2q-44 -6 -66.5 -46.5
t-56.5 -161.5l-154 -541l-151 -509h-193l282 389l-6 17l-264 725q-24 68 -43.5 95.5t-54.5 31.5l-14 2v17h345l-2 -17l-22 -2q-72 -6 -38 -107l164 -467l13 -31l105 391q31 117 21.5 163t-64.5 51l-28 2v17zM413 15l25 87v1z" />
    <glyph glyph-name="Aogonek" unicode="&#x104;" 
d="M969 -157l6 -9q-3 -2 -15 -9t-16 -9.5t-15 -8l-16 -8t-14 -6.5t-15.5 -6t-15 -4t-16.5 -3t-16 -1q-28 0 -60 8q-23 5 -46 22q-42 30 -40 78q0 43 29 77q18 22 44 36h-251l1 16l59 4q82 5 56 116l-102 407h-271l-83 -307q-30 -94 -8.5 -152.5t105.5 -65.5l23 -2v-16h-310
v16l16 2q37 5 57 19.5t44 67t54 161.5l230 836l-48 168h195l287 -1130q17 -66 32.5 -91.5t49.5 -28.5l47 -4v-16h-131q-12 -7 -27 -24q-11 -14 -19 -33q-7 -15 -7 -36q-3 -41 33 -61q86 -34 174 -3zM262 567h258l-122 498l-4 -15z" />
    <glyph glyph-name="aogonek" unicode="&#x105;" horiz-adv-x="755" 
d="M761 -142l5 -8q-32 -19 -45.5 -26.5t-38.5 -16.5t-47 -9q-31 0 -56 7q-21 5 -44 21q-37 26 -37 74q0 40 27 72q2 2 5.5 6t5.5 6q-56 28 -69 120l-4 52q-43 -73 -114 -128.5t-155 -55.5q-56 0 -101.5 45t-60.5 116.5t12 158.5l429 160v20h-1l3 92q4 153 -30.5 222.5
t-105.5 69.5q-46 0 -77.5 -57.5t-19.5 -128.5l-153 -3q0 85 103.5 158.5t230.5 73.5q125 0 173.5 -75.5t41.5 -272.5l-14 -384q-3 -91 41 -91q33 0 64 49l11 -8q-21 -36 -31 -52t-31 -43t-43 -38.5t-48 -11.5q-1 0 -2 0.5t-2 0.5q-7 -10 -11 -20q-6 -17 -6 -35
q-3 -38 31 -56q83 -31 164 -4zM465 211l7 217l-283 -106q-16 -93 24.5 -170t102.5 -78q42 -1 82 40.5t67 96.5z" />
    <glyph glyph-name="Cacute" unicode="&#x106;" horiz-adv-x="921" 
d="M767 1619l-493 -303h-32l386 344zM817 280l35 110h18v-319q-57 -32 -156 -66t-169 -34q-234 0 -370 176.5t-136 480.5q0 305 138.5 487.5t379.5 182.5q55 0 156 -44.5t160 -79.5l-25 -300h-17l-73 297q-29 27 -96.5 57t-108.5 30q-82 0 -143 -47.5t-96 -133.5
t-51.5 -192.5t-16.5 -236.5q0 -192 35 -335.5t107 -225.5t173 -82q93 0 154 71t102 204z" />
    <glyph glyph-name="cacute" unicode="&#x107;" horiz-adv-x="727" 
d="M657 1165l-493 -303h-32l386 344zM682 372h17q-8 -102 -39 -181.5t-77.5 -128t-102.5 -73.5t-120 -25q-139 0 -229 126t-90 315q0 205 105.5 345.5t262.5 140.5q103 0 166 -53t63 -138l-150 12q14 72 -12 107t-67 35q-84 0 -137.5 -100.5t-53.5 -268.5q0 -182 61.5 -287
t159.5 -105q27 0 52.5 5t59 22.5t59 46t46 81.5t26.5 124z" />
    <glyph glyph-name="Eogonek" unicode="&#x118;" horiz-adv-x="907" 
d="M779 -192q41 0 80 15l6 -9q-1 -1 -14.5 -9t-15.5 -9t-14 -7.5t-15.5 -8t-14 -7t-15 -6.5t-14 -4.5t-16 -4.5t-14.5 -2t-16 -1q-36 0 -64 8t-49 23q-45 31 -43 84q0 45 31 83q26 30 64 47h-638l1 16l61 6q23 0 37 14t14 37v1123q0 17 -12 31.5t-41 17.5l-61 7l1 18h739
l94 -390h-22q-17 70 -54.5 133.5t-95.5 116t-143 83.5t-185 31h-39l2 -572v-10h426v-27h-426v-3l-1 -616h26q124 1 234.5 53.5t184.5 139.5t99 190l26 -1l-122 -398h-39q-14 -2 -26 -9q-20 -13 -30 -25q-12 -14 -20 -36q-8 -19 -8 -39q-3 -43 35 -64q53 -22 107 -19z" />
    <glyph glyph-name="eogonek" unicode="&#x119;" horiz-adv-x="729" 
d="M402 -25q-50 -44 -29 -96q20 -49 85 -64q63 -14 137 14l4 -7q-79 -61 -181 -48q-83 11 -117 61q-41 61 33 132l6 6q-131 10 -215 134t-84 306q0 205 105.5 345.5t262.5 140.5q100 3 170 -72q69 -74 61 -174h-406q-16 -77 -16 -161q0 -186 58.5 -289.5t162.5 -102.5
q27 0 52 5.5t58 23t58 46t46.5 82t28.5 123.5h17q-15 -183 -96.5 -286t-200.5 -119zM409 862q-57 0 -102 -48.5t-68 -136.5h256q19 92 -12.5 138.5t-73.5 46.5z" />
    <glyph glyph-name="dotlessi" unicode="&#x131;" horiz-adv-x="407" 
d="M85 22q23 2 35 10.5t14 16.5t2 20v620q0 49 -12 69.5t-44 29.5l-76 20l295 88v-827q0 -42 58 -47l33 -2v-20h-339l1 20z" />
    <glyph glyph-name="Lslash" unicode="&#x141;" horiz-adv-x="864" 
d="M834 424h31l-107 -425h-711l1 16l61 6q21 0 36 15t15 36v489l-138 -84l-10 16l148 89v615q0 17 -12 31.5t-41 17.5l-61 6v19h429v-19l-79 -8q-27 -3 -40 -17.5t-13 -31.5v-502l152 92l10 -16l-162 -98v-656h44q155 0 279.5 114.5t167.5 294.5z" />
    <glyph glyph-name="lslash" unicode="&#x142;" horiz-adv-x="501" 
d="M412 21l31 -2l1 -19h-335v19l31 2q56 2 56 47v576l-186 -113l-10 16l196 119v505q0 49 -11.5 68.5t-43.5 28.5l-92 19l310 95v-618l124 75l10 -15l-134 -81v-675q0 -43 53 -47z" />
    <glyph glyph-name="Nacute" unicode="&#x143;" horiz-adv-x="980" 
d="M735 1644l-493 -303h-32l386 343zM670 1270h302v-18l-20 -2q-54 -6 -81 -48t-27 -109v-1101h-102l-538 1103l-14 25l1 -946q0 -67 30 -110t89 -49l20 -2l1 -16l-305 3v16l21 2q53 6 81.5 49.5t28.5 109.5v973q-41 82 -132 100l-19 2v18h314l475 -988l18 -40v851
q0 66 -31.5 108.5t-90.5 48.5l-21 2v18z" />
    <glyph glyph-name="nacute" unicode="&#x144;" horiz-adv-x="835" 
d="M670 1255l-493 -304h-32l386 344zM788 22l30 -2v-19h-333v19l31 2q55 4 55 48v516q0 100 -27.5 144.5t-92.5 44.5q-13 0 -27.5 -6.5t-25.5 -14.5t-27.5 -25.5t-24.5 -27.5t-27 -33.5t-25 -31.5v-566q0 -44 55 -48l30 -2l1 -19h-334v19l31 2q55 2 55 48v619
q0 48 -12.5 69.5t-44.5 30.5l-67 20l286 88l-6 -157v-75q98 125 140 166q72 68 123 68q182 0 182 -271v-558q0 -44 55 -48z" />
    <glyph glyph-name="OE" unicode="&#x152;" horiz-adv-x="1509" 
d="M1456 398h27l-122 -398h-698q-68 -28 -145 -28q-143 0 -253 83.5t-169 232.5t-59 342q0 129 37 250t101.5 213.5t158 148.5t199.5 56q81 0 155 -28h669l93 -390l-21 -1q-17 70 -55 133.5t-96 116t-143 83.5t-185 31h-39l1 -171l1 -400v-10h427v-27h-427v-3v-398v-218h25
q124 1 234.5 53.5t184.5 139t99 189.5zM244 636q0 -286 75 -460t207 -174q130 0 205 159v942q-76 167 -205 167q-134 0 -208 -170t-74 -464z" />
    <glyph glyph-name="oe" unicode="&#x153;" horiz-adv-x="1247" 
d="M1200 369h17q-8 -102 -39 -181.5t-77.5 -128t-102.5 -73.5t-120 -25q-71 2 -132.5 36t-98.5 93q-46 -56 -112 -87t-139 -31q-159 0 -258 133t-99 331q0 197 103 330t263 133q80 0 150.5 -38t114.5 -105q45 61 113 95.5t144 36.5q101 3 170 -71q70 -75 61 -175h-406
q-9 -46 -9 -49q-7 -52 -7 -112q-1 -83 15 -165q23 -110 76 -169t130 -58q27 0 52 5.5t58 23t58 46t46.5 82t28.5 123.5zM927 851q-57 0 -102 -48.5t-68 -136.5h256q19 92 -12 138.5t-74 46.5zM405 9q65 0 108.5 69.5t60.5 185.5q9 59 9 139t-7 150q-9 88 -29 154.5
t-59 110.5t-92 44q-84 0 -131 -113.5t-47 -280.5q0 -88 9.5 -165.5t29.5 -145.5t58 -108t90 -40z" />
    <glyph glyph-name="Sacute" unicode="&#x15a;" horiz-adv-x="729" 
d="M650 1644l-493 -303h-32l386 343zM417 750q136 -67 205.5 -156t69.5 -236q0 -96 -41.5 -183.5t-124 -145.5t-186.5 -58q-148 4 -291 68l8 321h15l54 -171q61 -179 216 -179q88 1 143.5 77t55.5 192q0 78 -28.5 138t-76 99t-120.5 74q-123 58 -194 148t-71 230
q0 132 88 232t234 100q99 0 195 -37l71 -37l-22 -292h-11l-89 260q-59 64 -146 67q-73 0 -121 -64.5t-48 -157.5q0 -185 215 -289z" />
    <glyph glyph-name="sacute" unicode="&#x15b;" horiz-adv-x="585" 
d="M596 1255l-493 -304h-32l386 344zM356 519q82 -41 134.5 -111t52.5 -156q3 -117 -79 -199q-83 -83 -199 -81q-112 -2 -214 47l6 258h11l40 -118q25 -73 68 -115.5t92 -42.5q61 0 102 49.5t41 124.5q0 116 -177 208q-85 43 -134 112t-49 148q-3 103 70 179q72 75 176 77
q54 0 120 -18t106 -55l-26 -197h-8l-92 193q-36 47 -96 52q-50 0 -86 -45t-36 -107q0 -116 177 -203z" />
    <glyph glyph-name="Scaron" unicode="&#x160;" horiz-adv-x="729" 
d="M667 1742l-290 -401l-291 401h37l254 -246l254 246h36zM417 750q136 -67 205.5 -156t69.5 -236q0 -96 -41.5 -183.5t-124 -145.5t-186.5 -58q-148 4 -291 68l8 321h15l54 -171q61 -179 216 -179q88 1 143.5 77t55.5 192q0 78 -28.5 138t-76 99t-120.5 74
q-123 58 -194 148t-71 230q0 132 88 232t234 100q99 0 195 -37l71 -37l-22 -292h-10l-90 260q-59 64 -146 67q-73 0 -121 -64.5t-48 -157.5q0 -185 215 -289z" />
    <glyph glyph-name="scaron" unicode="&#x161;" horiz-adv-x="587" 
d="M589 1328l-291 -401l-290 401h36l254 -245l254 245h37zM357 516q82 -41 135 -111t53 -155q3 -117 -80 -200t-199 -81q-112 -2 -214 47l6 258h11l40 -118q25 -73 68 -115.5t92 -42.5q61 0 102 49.5t41 124.5q0 116 -177 208q-85 43 -134 112t-49 148q-3 104 70 180
q72 75 176 77q53 0 119.5 -18.5t106.5 -55.5l-26 -197h-8l-92 193q-36 47 -95 52q-50 0 -86 -44.5t-36 -106.5q0 -57 45.5 -109.5t130.5 -94.5z" />
    <glyph glyph-name="Ydieresis" unicode="&#x178;" horiz-adv-x="878" 
d="M304 1450q-36 0 -61 25t-25 61t25 61t61 25t61.5 -25t25.5 -61t-25.5 -61t-61.5 -25zM614 1450q-35 0 -60.5 25t-25.5 60q0 26 14.5 48t38.5 33q24 10 50 5t45 -24t24 -45t-6 -50q-23 -52 -80 -52zM613 1270h285v-18l-16 -2q-49 -6 -90 -61.5t-99 -209.5l-150 -398v-508
q0 -46 62 -51l79 -6v-16h-469l2 16l79 6q35 3 49.5 18t14.5 33v486l-224 544q-33 80 -57.5 110.5t-62.5 34.5l-36 4v18h425l-1 -18l-34 -2q-32 -2 -47 -19t-11.5 -58.5t31.5 -109.5l167 -411l13 -35l162 417q39 91 29 150t-80 66l-20 2z" />
    <glyph glyph-name="Zacute" unicode="&#x179;" horiz-adv-x="884" 
d="M726 1644l-493 -303h-32l386 343zM847 403h24l-86 -403h-718v28l537 1196l12 29h-24q-199 0 -361.5 -105.5t-198.5 -249.5l-22 -1l92 374h702v-32l-533 -1192l-15 -31h45q221 0 361 105.5t185 281.5z" />
    <glyph glyph-name="zacute" unicode="&#x17a;" horiz-adv-x="663" 
d="M642 1255l-493 -304h-32l386 344zM585 244l35 77h11l-63 -323h-537v26l423 827h-26q-153 0 -226 -54t-103 -175l-19 -73h-15v319h560v-26l-418 -818l30 -2q142 0 221 56t127 166z" />
    <glyph glyph-name="Zdot" unicode="&#x17b;" horiz-adv-x="884" 
d="M430 1475q-46 0 -77 31q-32 32 -32 76t31 75.5t75 31.5t75 -31t32 -75t-29.5 -75.5t-74.5 -32.5zM847 403h24l-86 -403h-718v28l537 1196l12 29h-24q-199 0 -361.5 -105.5t-198.5 -249.5l-22 -1l92 374h702v-32l-533 -1192l-15 -31h45q221 0 361 105.5t185 281.5z" />
    <glyph glyph-name="zdot" unicode="&#x17c;" horiz-adv-x="661" 
d="M332 1030q-46 0 -77 31q-32 32 -32 76t31 75.5t75 31.5t75 -30.5t32 -74.5t-29.5 -76t-74.5 -33zM620 321h11l-63 -323h-537v26l423 827h-26q-153 0 -226 -54t-103 -175l-19 -73h-15v319h560v-26l-418 -818l30 -2q142 0 221 56t127 166z" />
    <glyph glyph-name="zcaron" unicode="&#x17e;" horiz-adv-x="661" 
d="M621 1328l-290 -401l-291 401h37l254 -245l254 245h36zM620 321h11l-63 -323h-537v26l423 827h-26q-153 0 -226 -54t-103 -175l-19 -73h-15v319h560v-26l-418 -818l30 -2q142 0 221 56t127 166z" />
    <glyph glyph-name="quoteright" unicode="&#x2019;" horiz-adv-x="339" 
d="M198 1254q86 -78 83 -195q0 -98 -65.5 -175.5t-155.5 -127.5l-7 12q43 30 67.5 76.5t24.5 99.5q-3 84 -56 143q-23 30 -26.5 68t14.5 72q20 37 56 45t65 -18z" />
    <glyph glyph-name="quotedblleft" unicode="&#x201c;" horiz-adv-x="622" 
d="M286 1288q-43 -30 -68 -76.5t-26 -99.5q3 -84 58 -145q23 -30 26.5 -68t-15.5 -72q-20 -36 -55 -43.5t-64 17.5q-88 80 -85 196q0 67 36 129.5t82.5 102.5t103.5 71zM480 1112q3 -83 57 -145q23 -30 26.5 -68t-15.5 -72v-1q-15 -34 -54 -42q-38 -8 -66 17q-87 79 -84 196
q0 97 65.5 175t155.5 128l7 -12q-43 -30 -67.5 -76.5t-24.5 -99.5z" />
    <glyph glyph-name="quotedblright" unicode="&#x201d;" horiz-adv-x="626" 
d="M198 1254q86 -78 83 -195q0 -98 -65.5 -175.5t-155.5 -127.5l-7 12q43 30 67.5 76.5t24.5 99.5q-3 84 -56 143q-23 30 -26.5 68t14.5 72q20 37 56 45t65 -18zM485 1253q86 -80 83 -194q0 -98 -65 -176t-156 -127l-7 12q43 30 67.5 76.5t25.5 99.5q-3 82 -57 142
q-24 30 -27 69t16 73q21 36 56 43.5t64 -18.5z" />
    <glyph glyph-name="Euro" unicode="&#x20ac;" horiz-adv-x="995" 
d="M933 257l16 -14q-62 -126 -158 -196.5t-214 -70.5q-176 0 -296 150t-143 396h-91v32h89q-2 46 -2 70q0 58 4 102h-91v32h94q28 251 156 396.5t313 145.5q96 0 181.5 -53.5t145.5 -129.5l-138 -158l-8 -9h-15l2 2l-1 1q14 139 -37.5 229t-133.5 90q-72 0 -125 -70
t-79.5 -183t-31.5 -261h302l-7 -32h-296v-39q0 -78 4 -134h247l-9 -31h-235q21 -217 96 -329t193 -112q45 0 88.5 14t93 55.5t86.5 106.5z" />
    </font>
</defs>
</svg>
