<?xml version="1.0" standalone="no"?>
<!DOCTYPE svg PUBLIC "-//W3C//DTD SVG 1.1//EN" "http://www.w3.org/Graphics/SVG/1.1/DTD/svg11.dtd" >
<svg xmlns="http://www.w3.org/2000/svg" xmlns:xlink="http://www.w3.org/1999/xlink" version="1.1">
<metadata>
Created by FontForge 20170731 at Mon May 16 08:05:42 2022
 By Aleksey,,,
</metadata>
<defs>
<font id="DarkParadiseItalic" horiz-adv-x="911" >
  <font-face 
    font-family="Dark Paradise"
    font-weight="400"
    font-style="italic"
    font-stretch="normal"
    units-per-em="2048"
    panose-1="0 0 0 0 0 0 0 0 0 0"
    ascent="1638"
    descent="-410"
    x-height="904"
    cap-height="1273"
    bbox="-630.952 -526.029 1513 1743"
    underline-thickness="102"
    underline-position="-307"
    unicode-range="U+000A-F009"
  />
<missing-glyph horiz-adv-x="1079" 
d="M102 1434h875v-1434h-875v1434zM160 1393l379 -633l381 633h-760zM514 717l-369 614v-1231zM541 674l-379 -631h758zM565 717l371 -621v1239z" />
    <glyph glyph-name="ri.liga" unicode="ri" horiz-adv-x="964" 
d="M993 1291q31 0 50 -21q20 -22 17 -52q0 -41 -24 -73t-53 -32q-31 0 -50 21q-20 22 -17 52q0 41 24 73t53 32zM843 904q39 0 62.5 -42t4.5 -119q-2 -9 -15.5 -49.5l-36 -108t-39.5 -122.5l-99 -334q-11 -47 -4 -63.5t32 -18.5q19 0 40.5 17.5t39 42.5t32.5 50.5t24 42.5
l8 18l16 -6q-69 -134 -113 -188.5t-98 -53.5q-39 0 -62 42t-2 119q10 39 79 253l110 361q21 72 -19 80q-14 3 -30.5 -4.5t-30.5 -22.5t-28 -33.5t-25 -38t-19.5 -35.5t-13.5 -27l-5 -10l-16 5q47 92 64 121q-178 58 -241 -32q-60 -88 -115 -198q-61 -119 -174 -371l-62 -179
l-85 10l96 324l22 76l96 336q21 73 -19 81q-19 5 -42 -11t-41.5 -42t-34.5 -52.5t-25 -45.5l-9 -20l-16 5q67 134 111 189.5t98 55.5q39 0 62 -42t4 -119q-37 -141 -87 -303l-1 -5l-49 -167l-6 -21q28 61 64.5 143.5t55 124t41.5 90.5t40 80.5t33 57.5q1 1 2 2.5t1 2.5
q1 2 4 5.5t3 4.5q103 152 211 145q63 -3 76 -103q64 102 131 102z" />
    <glyph glyph-name="ry.liga" unicode="ry" horiz-adv-x="1224" 
d="M1146 640q-80 -342 -374 -738v-1q-85 -117 -197.5 -211.5t-206.5 -97.5h-4h-1q-72 0 -138 36.5t-81 83.5q-11 33 12.5 63t52.5 43l29 14q0 -4 1 -12t5 -30.5t9.5 -42.5t16 -45t23.5 -42.5t32.5 -29.5t42.5 -12q88 3 202 97t237 267q-40 208 -51.5 399t-3.5 277l9 87
q7 44 3 61t-21 20q-14 3 -30.5 -4.5t-31 -22.5t-28.5 -33.5t-25 -38t-19.5 -35.5t-13.5 -26l-5 -11l-16 5q11 67 -20 103q-16 22 -46.5 19t-51.5 -34q-60 -88 -115 -198q-61 -119 -174 -371l-62 -179l-85 10l96 324l22 76l97 337q21 72 -19 80q-31 8 -69 -35t-61 -90
l-23 -46l-16 5q67 134 111 189.5t98 55.5q39 0 62 -42t4 -119q-42 -160 -86 -303l-2 -5l-49 -167l-6 -21q28 61 64.5 143.5t55 124t41.5 90.5t40 80.5t33 57.5q1 1 2 2.5t1 2.5q1 2 4 5.5t3 4.5q103 152 211 145q17 -1 22 -16t-0.5 -40t-15 -50.5t-23.5 -54.5
q46 85 83.5 123t82.5 38q36 0 54.5 -39.5t11.5 -121.5q-8 -136 -8 -232t11 -187t19.5 -137t17.5 -81q155 256 230 544q8 31 -5.5 62.5t-39.5 54t-53 40.5t-47 27l-20 9q2 2 5 5.5t12.5 12.5t19.5 16.5t24.5 15t27.5 10.5t28 1t28 -12q41 -31 55 -104t-8 -149z" />
    <glyph glyph-name=".notdef" horiz-adv-x="1079" 
d="M102 1434h875v-1434h-875v1434zM160 1393l379 -633l381 633h-760zM514 717l-369 614v-1231zM541 674l-379 -631h758zM565 717l371 -621v1239z" />
    <glyph glyph-name=".null" horiz-adv-x="0" 
 />
    <glyph glyph-name=".null" horiz-adv-x="0" 
 />
    <glyph glyph-name="nonmarkingreturn" horiz-adv-x="682" 
 />
    <glyph glyph-name="controlLF" unicode="&#xa;" horiz-adv-x="0" 
 />
    <glyph glyph-name="controlCR" unicode="&#xd;" horiz-adv-x="0" 
 />
    <glyph glyph-name="space" unicode=" " horiz-adv-x="489" 
 />
    <glyph glyph-name="exclam" unicode="!" horiz-adv-x="417" 
d="M385 1269q27 0 43 -21t10 -47l-209 -855h-22l124 875q3 20 18.5 34t35.5 14zM177 134q29 0 50 -21t21 -51q0 -29 -21 -50t-50 -21t-50.5 21t-21.5 50q0 30 21.5 51t50.5 21z" />
    <glyph glyph-name="quotedbl" unicode="&#x22;" horiz-adv-x="487" 
d="M200 788l56 501h102l-142 -501h-16zM468 1289h102l-142 -501h-16z" />
    <glyph glyph-name="numbersign" unicode="#" horiz-adv-x="813" 
d="M830 839h-170l-130 -407h159l-7 -32h-162l-127 -398h-34l128 398h-308l-127 -398h-33l127 398h-167l6 32h171l130 407h-159l6 31h163l127 398h33l-127 -398h308l127 398h33l-127 -398h167zM496 432l131 407h-307l-131 -407h307z" />
    <glyph glyph-name="dollar" unicode="$" horiz-adv-x="804" 
d="M595 1272q106 -31 185 -103l-15 -192h-25q1 5 2 13t1.5 31.5t-3.5 45.5t-16.5 50t-33.5 49l-3 2q-7 7 -11 10q-40 36 -90 57l-146 -523l33 -23q54 -37 84 -61.5t65.5 -64.5t52 -88.5t16.5 -109.5q1 -86 -35 -163.5t-102 -132.5t-149 -76t-167 -5l-45 -162h-32l46 169
q-127 30 -234 108l17 192h23q-1 -4 -1.5 -12t0.5 -31t6 -44.5t18.5 -48.5t35.5 -48q65 -57 145 -83l162 579l-32 23q-39 28 -62 45.5t-57 50.5t-52.5 62.5t-32.5 73t-14 90.5q0 143 100 240t247 97q48 0 89 -10l46 165h32zM602 301q0 51 -15.5 94t-46.5 78.5t-57.5 57.5
t-68.5 52l-10 7l-159 -571q37 -10 80 -10q119 0 198 85t79 207zM412 731l145 517q-45 14 -89 14q-109 0 -178.5 -76t-69.5 -184q0 -84 47.5 -143t138.5 -123z" />
    <glyph glyph-name="percent" unicode="%" horiz-adv-x="1128" 
d="M815 607q96 0 155.5 -68t59.5 -180q0 -147 -79 -257.5t-200 -110.5q-95 0 -155 68.5t-60 182.5q0 93 34.5 176.5t99.5 136t145 52.5zM751 12q65 0 114.5 57t72.5 139t23 171q0 97 -38.5 152t-106.5 55q-65 0 -114.5 -57t-72.5 -139t-23 -171q0 -97 38.5 -152t106.5 -55z
M317 663q-96 0 -156.5 68.5t-60.5 180.5q0 147 79.5 257t200.5 110q95 0 154 -68.5t59 -182.5q0 -145 -78 -255t-198 -110zM379 1258q-64 0 -113 -56.5t-72.5 -139t-23.5 -171.5q0 -97 38.5 -152t106.5 -55q65 0 114.5 57t72.5 139t23 171q0 97 -38.5 152t-107.5 55z
M993 1268h40l-895 -1266h-39z" />
    <glyph glyph-name="ampersand" unicode="&#x26;" horiz-adv-x="1345" 
d="M1095 705q83 2 136.5 -67t72.5 -175l-15 -5q-33 91 -75.5 131t-103.5 38q-100 -6 -187 -62l-6 -3q14 -31 22 -69v-1q22 -106 -14 -225t-108 -182l-1 -1l82 -57l-14 -20l-87 62l-9 -8q-32 -23 -65 -40q-97 -49 -206 -51t-207 44q-86 37 -146 108.5t-82 163.5
q-28 120 9 211t134 141l52 26q-55 152 -15 254q17 54 56 95t92 61v1l13 3q104 26 185 -4.5t100 -103.5q40 -146 -148 -262l-21 -13l-57 -33l-135 -68q31 -61 71 -119q134 -192 316 -332q29 26 52.5 50.5t47 55t39 63t25 68t8.5 76.5t-13 83q-1 1 -2 4t-2 4q-57 -31 -120 -34
q-52 -2 -88 24.5t-37 70.5q-1 36 23.5 60t70.5 25q41 1 82 -23.5t70 -63.5q10 7 42 30.5t49 34t49 22t65 12.5zM296 905q-35 -90 13 -225l167 85q82 51 122.5 98t25.5 103q-8 35 -36 58t-63 24h-22q-21 0 -31 -1q-22 -3 -43 -9q-47 -15 -82.5 -50.5t-50.5 -82.5zM642 79
q34 19 64 41q-184 144 -317 335q-42 61 -74 123l-23 -12q-77 -40 -114 -85.5t-40 -96t11 -114.5q14 -69 56.5 -124.5t106.5 -85.5q72 -34 160 -29t170 48zM755 545q59 4 108 44q-56 83 -124 82q-31 -1 -50.5 -17.5t-18.5 -43.5q1 -29 24 -47.5t61 -17.5z" />
    <glyph glyph-name="quotesingle" unicode="'" horiz-adv-x="274" 
d="M242 1289h102l-142 -501h-16z" />
    <glyph glyph-name="quotesingle" unicode="&#x2018;" horiz-adv-x="274" 
d="M242 1289h102l-142 -501h-16z" />
    <glyph glyph-name="parenleft" unicode="(" horiz-adv-x="468" 
d="M471 1347q-183 -206 -290.5 -543.5t-107.5 -655.5q0 -252 83 -419l-21 -16q-127 242 -124 513q5 314 118.5 607.5t322.5 528.5z" />
    <glyph glyph-name="parenright" unicode=")" horiz-adv-x="432" 
d="M260 1362q127 -242 124 -513q-5 -314 -118.5 -607.5t-322.5 -528.5l-19 16q183 206 290.5 543t107.5 655q0 253 -83 420z" />
    <glyph glyph-name="asterisk" unicode="*" horiz-adv-x="735" 
d="M719 1079l-281 -131l281 -130l-43 -80l-243 202l38 -333h-86l38 333l-243 -202l-43 80l282 130l-282 131l43 80l243 -202l-38 332h86l-38 -332l243 202z" />
    <glyph glyph-name="plus" unicode="+" horiz-adv-x="733" 
d="M383 653h307v-35h-307v-348h-35v348h-307v35h307v348h35v-348z" />
    <glyph glyph-name="comma" unicode="," horiz-adv-x="434" 
d="M246 118q28 -44 28 -94q0 -77 -55.5 -151t-146.5 -118l-8 12q119 72 119 174q-2 58 -38 102q-14 19 -12 43t19 40q21 21 49 18t45 -26z" />
    <glyph glyph-name="hyphen" unicode="-" horiz-adv-x="673" 
d="M168 512h342l-10 -54h-342z" />
    <glyph glyph-name="period" unicode="." horiz-adv-x="405" 
d="M183 134q29 0 50 -21t21 -51q0 -48 -44 -66t-78 16q-33 33 -15 78q18 44 66 44z" />
    <glyph glyph-name="slash" unicode="/" horiz-adv-x="526" 
d="M614 1362h43l-751 -1471h-43z" />
    <glyph glyph-name="zero" unicode="0" horiz-adv-x="991" 
d="M571 1289q157 0 264 -138t107 -361q0 -145 -40.5 -290t-109 -260t-169.5 -187t-213 -72q-157 0 -261 129.5t-104 351.5q0 145 39.5 292t107 266t167.5 194t212 75zM411 5q90 0 166.5 82.5t124 211t74 274t26.5 281.5q0 191 -58.5 301t-173.5 110q-72 0 -136.5 -54.5
t-109.5 -143.5t-78.5 -200.5t-49.5 -227.5t-16 -223q0 -191 58 -301t173 -110z" />
    <glyph glyph-name="one" unicode="1" horiz-adv-x="565" 
d="M247 62q-1 -18 15 -28t57 -13l76 -4l-1 -17h-160h-14h-251v18l78 4q81 5 89 45l213 1090l-208 -158l-12 15q171 129 329 275h33z" />
    <glyph glyph-name="two" unicode="2" horiz-adv-x="825" 
d="M462 97q161 17 216 132l20 1l-100 -228h-646v7l102 104q126 130 206.5 217t160 184.5t123 172t70 153.5t26.5 154q0 105 -49.5 167t-139.5 62q-170 0 -300 -219l-20 10q146 275 350 275q125 0 214.5 -81t89.5 -211q0 -43 -11 -88t-26.5 -85t-49 -90t-62.5 -89t-83 -96.5
t-94 -98t-113.5 -108.5t-122.5 -112t-139 -124l-23 -21h116q143 -1 285 12z" />
    <glyph glyph-name="three" unicode="3" horiz-adv-x="737" 
d="M408 703q98 -40 157 -127t60 -193q-2 -165 -118.5 -282.5t-281.5 -119.5q-159 5 -277 106l69 152q20 -92 75 -161t128 -69q126 0 210.5 101.5t84.5 240.5q0 130 -77 210t-192 91l-3 21l58 18q118 35 197.5 132.5t79.5 218.5q0 89 -46.5 137.5t-123.5 48.5
q-79 0 -149.5 -45t-113.5 -99l-19 10q137 195 311 195q107 0 185.5 -64t78.5 -171q0 -82 -48.5 -156.5t-112 -120.5t-131.5 -71z" />
    <glyph glyph-name="four" unicode="4" horiz-adv-x="798" 
d="M588 441h160l-34 -81h-141l-68 -366l-123 8l70 365h-471v23l726 891l36 -8zM467 449l118 633l-515 -633h397z" />
    <glyph glyph-name="five" unicode="5" horiz-adv-x="745" 
d="M244 1269l474 -1l-32 -309h-18q-9 121 -20 150q-16 45 -67 58q-36 10 -114 11h-213l-83 -355q212 -18 342.5 -121t130.5 -271q0 -97 -36 -182.5t-96 -144t-138 -92t-160 -33.5q-133 0 -268 99l59 141q10 -16 30.5 -51t30.5 -51t29.5 -41t35.5 -36.5t39.5 -21t49.5 -9.5
q130 0 212 103t82 261q0 152 -106.5 243t-293.5 103z" />
    <glyph glyph-name="six" unicode="6" horiz-adv-x="827" 
d="M434 759q121 13 212 -88t91 -240q0 -92 -35.5 -176t-93 -143.5t-133 -95t-153.5 -35.5q-136 0 -216.5 105t-80.5 290q0 205 82 397t227 329t323 187l4 -26q-94 -31 -172.5 -95t-135 -152t-95.5 -191t-60 -219q2 2 27 25.5t32.5 29.5t30.5 25.5t36 27t33.5 20t39 18
t37.5 7.5zM330 5q81 0 142.5 70t90 170t28.5 207q0 125 -51.5 196t-141.5 67q-16 0 -35 -8.5t-34.5 -18.5t-38.5 -29.5t-34.5 -30.5t-35.5 -34.5t-29 -28.5q-17 -114 -17 -223q0 -80 7 -138.5t24 -105t48 -70t77 -23.5z" />
    <glyph glyph-name="seven" unicode="7" horiz-adv-x="782" 
d="M221 1269h637v-7l-624 -1260l-153 -2l705 1178h-160q-11 0 -32 0.5t-31 0.5l1 -1q-65 3 -117 0.5t-90 -3.5t-68.5 -10.5t-51.5 -20t-39 -33t-31.5 -49.5t-28.5 -69h-28z" />
    <glyph glyph-name="eight" unicode="8" horiz-adv-x="782" 
d="M464 677q28 -18 49 -33t52.5 -46t51.5 -63t35 -80t15 -102q3 -152 -106 -263q-107 -109 -262 -109q-126 0 -214.5 76.5t-88.5 214.5q0 135 85.5 236.5t219.5 145.5q-150 115 -150 287q0 148 93 248t227 100q110 3 188 -75q79 -79 74 -189q0 -119 -78 -211.5t-191 -136.5z
M236 981q0 -52 15.5 -96t44 -76t50.5 -50.5t53 -38.5l43 -27q177 107 177 342q0 106 -37.5 168t-116.5 62q-99 0 -164 -86t-65 -198zM308 5q112 0 193 91t81 210q0 43 -13 83t-29 66t-44 53.5t-42.5 39t-39.5 28.5q-5 3 -7 5l-65 44q-3 2 -9.5 7t-10.5 7q-103 -48 -153 -150
t-50 -230q0 -123 47 -188.5t142 -65.5z" />
    <glyph glyph-name="nine" unicode="9" horiz-adv-x="825" 
d="M504 1293q136 0 216.5 -105t80.5 -290q0 -205 -82 -397t-227 -329.5t-323 -187.5l-3 27q124 41 221 141t154.5 229.5t86.5 286.5q-2 -2 -27 -25.5t-32.5 -29.5t-30.5 -25.5t-36 -27t-33.5 -20t-39 -18t-37.5 -7.5q-121 -13 -211.5 87.5t-90.5 240.5q0 92 35 176
t92.5 143.5t133 95t153.5 35.5zM429 559q19 1 39.5 9.5t47.5 30.5t39.5 33t45.5 43.5t34 33.5q17 114 17 223q0 80 -7 138.5t-24 104.5t-48 69.5t-77 23.5q-81 0 -142.5 -70t-90 -170t-28.5 -207q0 -124 52 -195t142 -67z" />
    <glyph glyph-name="colon" unicode=":" horiz-adv-x="415" 
d="M179 -9q-30 0 -51 20.5t-21 50.5q0 29 21 50.5t51 21.5q29 0 50 -21.5t21 -50.5q0 -30 -21 -50.5t-50 -20.5zM324 856q29 0 50.5 -21t21.5 -50q0 -30 -21.5 -51t-50.5 -21t-50 21t-21 51q0 29 21 50t50 21z" />
    <glyph glyph-name="semicolon" unicode=";" horiz-adv-x="395" 
d="M113 129q19 19 45 17t42 -24q31 -45 31 -98q0 -77 -55.5 -151t-146.5 -118l-8 12q119 72 119 174q-2 58 -38 102q-14 17 -13 40.5t17 39.5zM290 856q30 0 50.5 -21t20.5 -50q0 -30 -20.5 -51t-50.5 -21q-29 0 -50.5 21t-21.5 51q0 29 21.5 50t50.5 21z" />
    <glyph glyph-name="less" unicode="&#x3c;" horiz-adv-x="794" 
d="M687 948l-603 -313l603 -313l-15 -31l-634 328v32l634 329z" />
    <glyph glyph-name="equal" unicode="=" horiz-adv-x="761" 
d="M725 492h-649v35h649v-35zM725 743h-649v35h649v-35z" />
    <glyph glyph-name="greater" unicode="&#x3e;" horiz-adv-x="731" 
d="M57 980l633 -329v-31l-633 -329l-16 31l603 313l-603 313z" />
    <glyph glyph-name="question" unicode="?" horiz-adv-x="796" 
d="M830 1039q0 -63 -24.5 -121.5t-64 -104t-87 -87.5t-95 -78.5t-87 -71t-64 -71.5t-24.5 -72q0 -32 21 -47t54 -15q17 0 35 3l2 -24q-26 -4 -38 -4q-52 0 -86.5 25t-34.5 73q0 55 36.5 109t88.5 102.5t104 101.5t88.5 124.5t36.5 151.5q0 92 -44 146.5t-138 54.5
q-43 0 -83.5 -15.5t-77.5 -45t-57 -48.5t-48 -50l-18 16q2 2 24 26.5t33.5 36t37.5 36.5t48.5 38.5t53 29.5t63.5 23.5t68 7.5q120 0 198.5 -69t78.5 -181zM390 134q29 0 50.5 -21.5t21.5 -50.5q0 -48 -44 -66t-78 16t-16 78t66 44z" />
    <glyph glyph-name="at" unicode="@" horiz-adv-x="1310" 
d="M907 244q-137 0 -137 123q0 4 4.5 22.5t10 38.5t6.5 23q-140 -225 -252 -225q-74 0 -122 53.5t-48 151.5q0 117 54 231.5t147 189t194 74.5q49 2 92.5 -19t71.5 -61l79 73h8l-138 -411q-26 -75 -32 -151q0 -82 79 -82q81 0 150 75.5t106 185t37 219.5q0 217 -128 362
t-333 145q-179 0 -332.5 -117.5t-241 -306.5t-87.5 -398q0 -255 140 -415.5t368 -160.5q185 0 337 110l13 -23q-162 -116 -360 -114q-122 0 -226 45t-176.5 124.5t-113.5 191.5t-41 242q0 165 58.5 321.5t156 272t232 185.5t279.5 70q226 0 367 -151t141 -379
q0 -132 -46 -250t-130.5 -191.5t-186.5 -73.5zM576 270q33 0 67.5 25t65.5 67t54 81t44 83l1 5q-1 0 -7 -16l1 2l94 280q-19 47 -54.5 74t-79.5 27q-80 0 -151.5 -74t-112 -180.5t-40.5 -208.5q0 -80 32.5 -122.5t85.5 -42.5z" />
    <glyph glyph-name="A" unicode="A" 
d="M511 23q32 1 49.5 34.5t14.5 74.5l-25 353l-334 1l-129 -293q-41 -90 -35.5 -128t63.5 -42l21 -1l32 -3l3 -17h-315l3 17l13 1l13 1q40 3 68.5 26t61 78.5t84.5 169.5l397 876l-3 52l-2 50h126l72 -1133q5 -60 23.5 -86.5t60.5 -30.5l16 -1l23 -3l1 -17h-373l2 17l32 2z
M226 510l323 -5l-37 605l-2 20z" />
    <glyph glyph-name="B" unicode="B" horiz-adv-x="763" 
d="M740 917q-34 -92 -120 -154t-200 -80l13 -4q109 -14 179.5 -97.5t66.5 -193.5q0 -78 -25 -149q-41 -111 -141.5 -174t-242.5 -63h-381l2 17l71 4q46 2 60 64l212 1074q20 95 -80 93l-25 2l-1 17h336q137 0 216 -73t79 -175q0 -57 -19 -108zM615 938q11 50 11 97
q0 93 -54 157t-148 64h-57l-85 -450l-1 -6l-1 -4l-18 -93h1l-20 -105l-110 -579h129q102 0 170.5 72t97.5 182q17 68 17 135q0 93 -48 170t-124 97l2 15q90 8 153 78t85 170z" />
    <glyph glyph-name="C" unicode="C" horiz-adv-x="819" 
d="M824 1156q8 -25 -0.5 -49t-26.5 -40t-37 -29t-34 -19l-14 -6q0 5 0.5 14t0.5 34.5t-1.5 49t-7.5 53t-15.5 51.5t-27 39t-40.5 21q-3 0 -8.5 0.5t-8.5 0.5q-87 0 -162.5 -55.5t-128 -146t-90.5 -205t-56 -232.5t-18 -229q0 -402 246 -402q223 0 342 330l22 -1
q-2 -8 -6.5 -20.5t-20 -50t-34 -71.5t-49.5 -76t-65 -72t-81.5 -51t-99.5 -21q-183 -1 -284.5 132t-101.5 354q0 153 43 303.5t117.5 270t184.5 194t235 74.5q11 0 33 -2q65 -4 118 -43t76 -100z" />
    <glyph glyph-name="D" unicode="D" horiz-adv-x="876" 
d="M457 1279q130 2 225.5 -71.5t141 -198t40.5 -280.5q-3 -109 -34 -223q-62 -224 -220 -364t-376 -140h-343v17l71 4q7 0 13.5 1.5t11.5 3.5t9.5 5.5t7 6.5t5.5 8.5t4.5 8t3.5 8.5t2 8t1 8l2 6l210 1064q2 11 3 22t-2 26.5t-10.5 27t-25 20t-43.5 7.5l-25 2l-1 17zM705 514
q27 112 27 228q0 514 -322 514h-40l-238 -1237h89q93 0 174.5 40t141 110t102 157t66.5 188z" />
    <glyph glyph-name="E" unicode="E" horiz-adv-x="768" 
d="M778 1273l28 -334l-15 -3q-11 127 -88.5 223.5t-195.5 96.5h-134l-109 -569h300l-8 -18h-296l-125 -650h126q155 0 252.5 66t153.5 203l15 -2l-107 -284h-686l1 17l71 4q10 0 18 2.5t13.5 5.5t10 9t7 10t5 11t3.5 10t2.5 10t1.5 8l210 1063q3 14 4.5 22t0 25.5t-9.5 27.5
t-27 18.5t-49 8.5l-24 2l1 17h650z" />
    <glyph glyph-name="F" unicode="F" horiz-adv-x="745" 
d="M774 1273l38 -346h-17q-8 127 -93.5 218t-207.5 91h-122l-110 -563h338l-6 -18h-335l-108 -559q-11 -69 62 -72l79 -4v-18h-398l-1 18l44 4q35 3 57.5 20t27.5 30.5t7 25.5l205 1064q19 88 -77 90l-29 2v17h646z" />
    <glyph glyph-name="G" unicode="G" horiz-adv-x="921" 
d="M515 637h412l-1 -17l-55 -4q-58 -2 -66 -40l-46 -241q0 -2 -1 -5l-64 -328h-118l9 44q-78 -71 -182 -73q-181 -1 -283.5 143.5t-102.5 368.5q0 209 77 401q75 187 206.5 301t295.5 114q12 0 34 -2q65 -4 118 -43t76 -100q8 -25 -0.5 -49t-26.5 -40.5t-37 -29t-34 -18.5
l-14 -6q0 5 0.5 14t0.5 34.5t-1.5 49t-7.5 53t-15.5 51.5t-27 39t-40.5 21q-3 0 -8.5 0.5t-8.5 0.5q-102 0 -187 -73t-138 -190t-81.5 -257t-26.5 -280q0 -46 2 -68q14 -198 62.5 -298t159.5 -104q117 -5 198 81l92 481q4 23 -4.5 35t-41.5 13l-124 4v17z" />
    <glyph glyph-name="H" unicode="H" horiz-adv-x="913" 
d="M665 1273h358v-17l-42 -3q-19 0 -34 -5t-25 -13.5t-17.5 -17t-11.5 -21t-6 -19.5t-4 -17t-2 -11l-202 -1049q-16 -76 58 -78l48 -3l1 -17h-359v17l48 3q12 0 23 2t18.5 6t13.5 7.5t10.5 9t7 9.5t5 10.5t3 9.5t2 9t1.5 7l119 610l-416 1l-119 -618q-13 -62 57 -62l48 -4
v-17h-357l1 17l54 3q28 -1 50 15.5t28 43.5l207 1073q21 99 -71 100l-30 2v17h359l-1 -17l-38 -3q-39 0 -67.5 -26.5t-31.5 -65.5l-86 -443l415 -1l86 447q3 12 4 20.5t-1.5 22.5t-10 23t-25.5 16.5t-45 7.5l-23 2v17z" />
    <glyph glyph-name="I" unicode="I" horiz-adv-x="397" 
d="M126 1273h388l-2 -17l-32 -2q-16 0 -30.5 -2.5t-25 -6t-20 -10t-15.5 -12t-12 -14.5t-9 -14.5t-5.5 -14t-3.5 -12.5t-3 -11l-1 -7l-205 -1062q-11 -66 63 -66l57 -3v-17h-385v17l57 3q28 1 46.5 7.5t27 18.5t10.5 18t5 18l211 1071q16 98 -80 99l-36 2v17z" />
    <glyph glyph-name="J" unicode="J" horiz-adv-x="602" 
d="M342 1273h377l-1 -17l-40 -3q-22 -1 -39.5 -8t-27.5 -15.5t-18 -21t-11 -20.5t-6 -20t-3 -13l-202 -1054q-10 -52 -37.5 -108t-68 -107.5t-98 -86.5t-120.5 -40h-4q-3 0 -7 -0.5t-7 -0.5h-16q-65 -2 -121.5 32t-84.5 93q-10 26 -3.5 49t23 42.5t34 33t31.5 20.5l14 8
q0 -10 1.5 -26.5t9.5 -59t20 -75.5t36 -61t56 -31q79 0 131.5 68.5t86.5 229.5l6 24l199 1036q3 19 4 27t-0.5 28t-9 30.5t-26 19.5t-46.5 8l-33 2z" />
    <glyph glyph-name="K" unicode="K" horiz-adv-x="958" 
d="M660 1273h308v-18l-35 -2q-44 -3 -82 -32.5t-123 -124.5l-242 -273l-73 -84l3 -2q1 -1 5 -2.5t5 -2.5q4 -2 12 -7l4 -2q8 -6 11 -8q5 -3 13 -11v-1q0 -1 1 -1q15 -14 27.5 -29t22 -35.5t16 -34t12 -42.5t8.5 -41.5t5.5 -50t3.5 -50.5t3 -60t3 -61q0 -25 1 -36
q9 -164 91 -215t209 41l4 -10q-57 -52 -124.5 -79t-135.5 -15.5t-110 69.5q-36 47 -47 140t-7 181.5t-6.5 184t-45.5 146.5l-1 1q0 1 -2 3l-3 3v1l-163 -189l-22 -112l-3 -17l-59 -305q-6 -26 12 -48t46 -20l43 -3v-18h-356v18l47 3q18 0 32 3t23 8.5t15 10t9.5 12.5t5 11.5
t3.5 12.5l1 9l207 1072q20 92 -67 92l-36 2v18h358v-18l-34 -2q-22 0 -39 -7.5t-27 -16.5t-18 -23t-11 -23t-6.5 -21.5t-3.5 -13.5l-69 -356l-3 -18l-23 -116l-17 -87l448 518q58 67 63 101q3 26 -12 44q-16 19 -41 19l-34 3v17z" />
    <glyph glyph-name="L" unicode="L" horiz-adv-x="710" 
d="M645 368l18 2l-140 -368h-636l1 17l50 3q27 0 45 5.5t26 17.5t10 16.5t5 17.5l206 1055q12 57 3 81q-17 38 -77 39l-23 2v17h401v-17l-44 -2q-18 0 -34 -3t-27.5 -7.5t-22 -12t-17.5 -14t-13 -16t-9.5 -16t-6.5 -16t-4 -13.5t-2 -12l-2 -7l-220 -1118h121
q114 3 227.5 111t164.5 238z" />
    <glyph glyph-name="M" unicode="M" horiz-adv-x="1118" 
d="M966 1273h258l-2 -17l-22 -5q-108 1 -132 -131l-185 -1040q-4 -22 7.5 -39.5t52.5 -18.5l48 -3l1 -17h-374l1 17l52 3q27 0 45.5 6t27 17t12 19t5.5 19l188 1051l15 75l-568 -1070h-11l-17 149l-65 830l-3 65l-239 -1086q-7 -34 17.5 -55.5t97.5 -20.5l39 -2v-17h-336v17
l45 3q95 5 110 80l222 998q13 57 -21 103q-35 47 -92 52l-2 1l-1 17h272l51 -951z" />
    <glyph glyph-name="N" unicode="N" horiz-adv-x="931" 
d="M758 1273h296l-1 -17l-27 -2q-17 -1 -31.5 -3.5t-25.5 -5.5t-20 -9.5t-15 -9.5t-12 -12.5t-8.5 -12.5t-5.5 -14.5t-3.5 -13.5t-2.5 -15l-3 -12l-223 -1152h-55l-338 1112l-13 46l-201 -1048q-6 -38 18 -60t86 -23l34 -2v-17h-308l1 17l31 2q98 5 115 90l195 1003
q11 50 -19 91q-31 42 -80 48l-2 1l-18 2v17h238l318 -1042l10 -36l183 940q11 53 -15 85t-86 35l-13 1z" />
    <glyph glyph-name="O" unicode="O" horiz-adv-x="1007" 
d="M599 1301q169 0 279.5 -133t110.5 -351q0 -171 -53.5 -330.5t-137 -270t-187.5 -177t-203 -66.5q-169 0 -280 133t-111 351q0 138 34.5 269t94 233.5t133.5 180.5t157.5 119.5t162.5 41.5zM406 6q89 0 172.5 72.5t140.5 181.5t93 229t42 222q8 154 -20 281t-89 202
t-144 75q-89 0 -174 -72t-143.5 -179.5t-95 -228t-39.5 -221.5q-5 -161 24 -288t89.5 -200.5t143.5 -73.5z" />
    <glyph glyph-name="P" unicode="P" horiz-adv-x="724" 
d="M489 1273q142 0 216.5 -77.5t74.5 -193.5q1 -107 -48 -206q-46 -95 -134.5 -150.5t-193.5 -54.5q-77 -1 -157 19l-101 -522q0 -13 -0.5 -27t19 -25.5t58.5 -11.5l71 -5v-17h-399v17l52 3q69 2 82 60l204 1066q22 104 -80 106l-23 2l-1 17h360zM602 781q48 115 46 238
q0 106 -45.5 161.5t-149.5 55.5h-86l-114 -602q59 -22 130 -24q72 0 128 45.5t91 125.5z" />
    <glyph glyph-name="Q" unicode="Q" horiz-adv-x="1007" 
d="M518 -224q57 -15 105.5 12.5t99.5 104.5l12 -8q-42 -95 -107.5 -147t-141.5 -31q-30 8 -57 26t-41 32t-38 42.5t-32 37.5q-2 -2 -8 -6l-2 -2q-1 -1 -2.5 -2t-2.5 -2t-2.5 -2t-2.5 -1q-1 -1 -2 -1q-62 -45 -139 -31q-42 11 -59.5 39.5t-8.5 61.5q11 41 50 57t87 3
q57 -16 103 -58q26 35 46 76q0 1 1 1l1 2q-158 13 -259 144t-101 338q0 138 34.5 269t94 233.5t133.5 180.5t157.5 119.5t162.5 41.5q169 0 279.5 -133t110.5 -351q0 -171 -53 -329.5t-136 -269t-186.5 -177.5t-202.5 -68l-2 -4q-21 -50 -56 -94l5 -4q68 -71 160 -100z
M149 573q-5 -161 24 -288t89.5 -200.5t143.5 -73.5q89 0 172.5 72.5t140.5 181.5t93.5 229t41.5 222q8 154 -20 281t-89 202t-144 75q-89 0 -174 -72t-143.5 -179.5t-95 -228t-39.5 -221.5zM163 -181q64 -17 134 48q-34 46 -91 65q-35 10 -61 -2t-33 -39q-7 -24 7.5 -44
t43.5 -28z" />
    <glyph glyph-name="R" unicode="R" horiz-adv-x="868" 
d="M852 78l7 -15q-57 -44 -124.5 -66t-135.5 -12t-110 58q-29 32 -41.5 89t-12.5 119v124.5t-12 121t-42 92.5q-20 -1 -66 -6.5t-76 -8.5l-95 -488v-28t19 -25.5t55 -12.5l73 -1l1 -18h-399v18l48 2q71 2 84 61l212 1083q19 87 -78 88l-31 2l-1 17h360q142 0 216.5 -77.5
t74.5 -193.5q0 -164 -94.5 -278t-241.5 -130q66 -46 84.5 -110.5t25.5 -196.5q1 -26 2 -39q0 -152 82 -201.5t216 32.5zM365 1235l-120 -624l146 10q115 4 185 117t70 280q0 106 -46 161.5t-150 55.5h-85z" />
    <glyph glyph-name="S" unicode="S" horiz-adv-x="655" 
d="M663 1156q8 -25 -0.5 -49t-26.5 -40.5t-37 -29.5t-33 -19l-15 -6q0 5 0.5 14t0.5 34.5t-1.5 49.5t-7.5 53.5t-15.5 51.5t-27 39t-40.5 21q-3 0 -8.5 0.5t-8.5 0.5q-95 0 -176 -77t-81 -181q0 -94 47.5 -162.5t135.5 -130.5q79 -56 126 -104t76.5 -115t29.5 -151
q0 -66 -29.5 -133.5t-80.5 -123t-128.5 -90.5t-166.5 -35q-72 0 -144 29.5t-108 76.5l47 299h12l12 -171q6 -103 57 -155t137 -52q107 0 197.5 90t90.5 202q0 116 -44 190.5t-167 155.5q-99 66 -150.5 147.5t-51.5 190.5q0 56 27 113.5t73 104t112.5 76.5t139.5 31h2h2
q9 0 29 -2q65 -4 118 -43t76 -100z" />
    <glyph glyph-name="T" unicode="T" horiz-adv-x="831" 
d="M891 1273l6 -341l-18 2q0 77 -20 143.5t-68 113.5t-116 47h-100l-216 -1141q-6 -28 8.5 -52t63.5 -25h65v-17l-431 -1v18l60 3q98 2 113 78l221 1137h-87q-88 0 -176 -96t-133 -218l-16 -1l107 350h737z" />
    <glyph glyph-name="U" unicode="U" horiz-adv-x="864" 
d="M685 1271l299 2v-17l-29 -3q-15 -1 -28.5 -4t-23.5 -6.5t-18.5 -10t-14.5 -11t-11 -13.5t-7.5 -13t-6 -15t-4 -13.5t-3 -13.5t-2.5 -12l-143 -735q-17 -85 -35.5 -146.5t-49 -118.5t-70.5 -92t-99.5 -55.5t-135.5 -20.5q-64 0 -111 24t-73 69t-40.5 99.5t-16 125t4 136.5
t16.5 143l93 603q9 32 -12 58q-21 25 -55 22l-36 3l1 17h357v-17l-56 -4q-66 -3 -80 -82l-94 -607q-85 -521 153 -521q73 0 128.5 28t91.5 81.5t57.5 113t36.5 137.5l142 738q8 50 -10 79.5t-80 31.5l-35 3v17z" />
    <glyph glyph-name="V" unicode="V" horiz-adv-x="905" 
d="M743 1273h308l-1 -17l-28 -1q-41 -3 -68.5 -24t-59.5 -76t-85 -173l-444 -1001h-38l-109 1140q-7 66 -27 97.5t-72 34.5l-23 3l1 17h372l-1 -17l-33 -2q-38 -2 -61.5 -15t-30 -29.5t-9 -35.5t1.5 -33l88 -938l2 -23l395 891q79 178 -53 183l-24 2z" />
    <glyph glyph-name="W" unicode="W" horiz-adv-x="1300" 
d="M1139 1273h307v-17l-29 -4q-61 -5 -99 -53t-114 -217l-443 -1001h-39l-63 663l-294 -663h-38l-109 1136q-7 66 -26.5 99t-67.5 37l-28 3l1 17h372l-1 -17l-43 -3q-35 -2 -56.5 -17t-26.5 -35.5t-6.5 -42t2.5 -36.5l86 -919l2 -23l228 514l-40 427q-6 63 -28 95.5
t-68 36.5l-26 3v17h558v-17l-44 -2q-32 -3 -56 -23t-57.5 -78t-84.5 -171l-51 -115l63 -664l2 -23l400 902q39 93 24.5 130.5t-81.5 41.5l-25 2zM728 1177l25 -261l73 166q28 64 34.5 98.5t-8.5 51t-55 19.5h-2q-31 0 -51 -21q-19 -21 -16 -53z" />
    <glyph glyph-name="X" unicode="X" horiz-adv-x="847" 
d="M660 1273h301v-17l-25 -2q-50 -3 -87 -31.5t-86 -100.5l-289 -423l146 -561q6 -26 12 -43t16 -35.5t25.5 -28t36.5 -10.5l32 -2l2 -17h-355l2 17l59 4q26 2 41 11.5t18 26.5t1.5 32t-6.5 37l-112 453l-6 14l-305 -461q-36 -59 -26.5 -84.5t69.5 -29.5l47 -5l2 -17l-311 2
l2 17l38 2q47 3 82 36t87 113l305 456l-126 493q-18 75 -37 100q-25 32 -65 35l-21 2v17h354v-17l-43 -3q-40 -2 -61 -21.5t-21 -43t4 -47.5l102 -403l3 -12l274 400q38 53 24.5 89t-79.5 38l-26 3z" />
    <glyph glyph-name="Y" unicode="Y" horiz-adv-x="802" 
d="M947 1273l1 -17l-27 -1q-48 -3 -86 -33t-80 -110l-315 -627l-81 -393q-4 -24 15.5 -45.5t64.5 -24.5l63 -3l1 -17h-432l2 17l62 3q92 1 108 71l75 361l-103 662q-8 63 -30 98.5t-69 38.5l-23 3l-1 17h344v-17l-28 -2q-98 -5 -80 -137l84 -598l4 -26l302 605
q24 49 30.5 80t-8 51.5t-56.5 22.5l-36 4l-2 17h301z" />
    <glyph glyph-name="Z" unicode="Z" horiz-adv-x="716" 
d="M741 402h21l-159 -400h-683l2 22l689 1210v8h-116q-147 0 -269 -99t-165 -227l-20 -1l117 358h599l-4 -21l-685 -1212v-8h179q159 0 291 107.5t203 262.5z" />
    <glyph glyph-name="bracketleft" unicode="[" horiz-adv-x="217" 
d="M215 1362h255l-5 -21h-217q-51 -426 -124 -803q-84 -423 -186 -804h215l-5 -21h-255z" />
    <glyph glyph-name="backslash" unicode="\" horiz-adv-x="526" 
d="M197 1362l178 -1472h-38l-179 1472h39z" />
    <glyph glyph-name="bracketright" unicode="]" horiz-adv-x="219" 
d="M33 1362l254 1l-321 -1650h-255l5 21h216q52 434 125 804q84 423 186 804h-215z" />
    <glyph glyph-name="asciicircum" unicode="^" horiz-adv-x="778" 
d="M398 1289l339 -664l-29 -18l-313 616l-314 -616l-28 18l338 664h7z" />
    <glyph glyph-name="underscore" unicode="_" horiz-adv-x="751" 
d="M76 -110h605l-7 -38h-604z" />
    <glyph glyph-name="grave" unicode="`" horiz-adv-x="284" 
d="M250 1352l69 -287l-13 -9l-193 296h137z" />
    <glyph glyph-name="a" unicode="a" horiz-adv-x="708" 
d="M486 58q19 -5 42 11t41.5 42.5t34.5 53t25 45.5l9 20l16 -6q-67 -134 -110.5 -189t-97.5 -55q-39 0 -62 41.5t-4 118.5q29 116 93 304l67 194q-18 -35 -53.5 -106t-62.5 -123.5t-63.5 -122t-67.5 -119t-63.5 -95t-61.5 -69t-52 -23.5q-61 0 -94.5 53.5t-33.5 139.5
q0 94 43 221.5t106.5 238.5t143.5 190.5t146 83.5q34 2 58.5 -10t36.5 -29t19.5 -50t9 -55.5t2.5 -63.5l114 205l31 -1l-134 -427l-97 -337q-21 -73 19 -81zM165 65q22 0 54.5 37t73.5 109.5t75 138t83.5 166t75.5 149.5q-16 85 -29 114q-37 84 -123 73
q-70 -9 -138.5 -131.5t-106.5 -268.5t-38 -245q0 -142 73 -142z" />
    <glyph glyph-name="b" unicode="b" horiz-adv-x="671" 
d="M672 743q5 -107 -35.5 -242.5t-105.5 -250.5t-152 -194t-167 -79q-49 -2 -92 22t-68 67l-50 -66h-15l60 217l291 1046q11 38 -18 40l-118 6l1 9l267 55l-103 -348l-221 -742l41 99q103 251 189 387t157 136q66 0 100.5 -49.5t38.5 -112.5zM562 647q7 71 -10 122.5
t-51 51.5q-49 0 -139 -142t-159.5 -309.5t-69.5 -239.5q0 -55 28 -85.5t73 -30.5q78 0 150 98t118 241.5t60 293.5z" />
    <glyph glyph-name="c" unicode="c" horiz-adv-x="581" 
d="M622 785q11 -33 -12.5 -63t-51.5 -44l-29 -13q1 9 1.5 23.5t-2.5 52t-11 66t-29.5 51t-52.5 21.5q-75 -4 -155.5 -125t-119.5 -288q-26 -112 -26 -210q0 -205 116 -205q88 0 192 160q6 8 32.5 53.5t30.5 51.5l14 -1q-5 -8 -31.5 -59.5t-31.5 -60.5q-26 -48 -48 -81
t-54 -69t-69.5 -53.5t-78.5 -14.5q-64 5 -107.5 31t-63 65.5t-25.5 89t2.5 103.5t21.5 107.5t31.5 101.5t34 85t26.5 58l11 22q168 265 311 265q58 1 106 -32t68 -88z" />
    <glyph glyph-name="d" unicode="d" horiz-adv-x="708" 
d="M484 56q31 -8 69 35t61 89l23 47l15 -5q-67 -135 -110.5 -190t-97.5 -55q-39 0 -62 42t-4 119q28 112 93 303l-17 -32q-37 -72 -58 -111.5t-55 -98.5t-58 -91.5t-53.5 -66.5t-57.5 -49t-55 -15l-29 3q-80 20 -96 121q-27 168 139 520q58 123 142 203.5t155 80.5q5 1 14 2
t31 -5t39 -21.5t30 -54t12 -95.5l150 532q11 38 -18 40l-122 7l2 8l271 55l-273 -899l-74 -251l-25 -86q-21 -73 19 -81zM166 63q18 0 42 19.5t51.5 57t55 81t60.5 103.5t60 111t61 116q10 19 15 29q29 118 0 185q-17 38 -51 56.5t-60 17.5l-25 -1q-50 0 -97.5 -58
t-87.5 -154q-43 -103 -70.5 -223t-27.5 -198q0 -142 74 -142z" />
    <glyph glyph-name="e" unicode="e" horiz-adv-x="559" 
d="M585 758q0 -101 -141 -200q23 -132 4.5 -239t-63 -183.5t-99.5 -118t-106 -41.5q-47 0 -81.5 23.5t-51.5 61.5t-27 83.5t-10 91t1.5 83.5t4.5 61l4 24q21 116 79.5 231.5t141 192t160.5 76.5q85 0 134.5 -37t49.5 -109zM224 50q31 -2 70 33.5t74 97t53.5 160t5.5 206.5
q-140 -88 -303 -135q-9 -39 -11 -56q-2 -12 -4.5 -32.5t-2 -72t9 -92t36 -74t72.5 -35.5zM128 440q139 43 218 92t107.5 100t28.5 122q0 60 -25.5 89.5t-67.5 29.5q-46 0 -98 -64.5t-94.5 -162.5t-68.5 -206z" />
    <glyph glyph-name="f" unicode="f" horiz-adv-x="450" 
d="M699 1278q10 -21 7 -40.5t-16 -36.5t-26.5 -30t-24.5 -20l-11 -7q-1 9 -3 23.5t-11.5 51t-22.5 63t-37.5 45t-55.5 11.5q-25 -6 -46 -24t-38 -53t-30 -68t-27 -93.5t-22.5 -102.5t-22.5 -120l7 -1h222l-35 -61h-199l-124 -616q-1 -6 -14 -68q-18 -79 -42 -150t-58.5 -139
t-81 -112.5t-99.5 -54.5q-57 -11 -110 13.5t-83 74.5q-10 21 -7 40.5t16 36.5t26.5 30t24.5 20l11 7q1 -9 3 -23.5t11.5 -51t22.5 -63t37.5 -45t55.5 -11.5q20 5 38 17.5t33.5 36t28 48t25 64.5t21.5 72.5t20.5 86t18.5 91t19 100.5l104 576l3 18l-132 2l3 10l140 51
q4 22 7 34q18 79 42 150t58.5 139t81 112.5t99.5 54.5q57 11 110 -13.5t83 -74.5z" />
    <glyph glyph-name="g" unicode="g" horiz-adv-x="645" 
d="M667 919q40 -19 52 -51.5t-4 -60.5q-18 -38 -60.5 -46.5t-85.5 13.5q-55 28 -91 75q-12 -9 -32 -29l4 -7q57 -86 55 -189q-2 -115 -60 -208q-43 -71 -107.5 -114.5t-133.5 -43.5q-27 0 -49 7q-16 6 -24 10q-32 -9 -45.5 -42.5t1.5 -71t58 -54.5l116 -46q7 -3 32.5 -12
t37.5 -14.5t34 -17.5t32 -23.5t21.5 -31t11.5 -41t-7 -51.5t-25 -65q-70 -138 -218 -186q-150 -53 -249.5 1.5t-98.5 168.5q0 97 55 176t147 120q-34 56 -10 120q24 63 89 82l-5 4l-5 5l-9 8q-1 1 -2.5 3t-2.5 3q-72 79 -72 230q0 138 91.5 251t211.5 113q70 -5 108 -60
q13 14 31 29l-4 5q-53 82 -140 128q-52 26 -105 7.5t-118 -85.5l-10 11q58 85 132 124.5t145 4.5q28 -13 51.5 -35.5t34.5 -38t30 -49.5t24 -43q12 7 23 11q0 1 1 1q70 34 144 5zM124 13q-46 15 -78 52q-82 -34 -123 -113t-22 -165q6 -50 51.5 -92.5t105 -57t121.5 3.5
q64 21 113 67t73 109l3 9t2 23.5t-5.5 33t-25.5 34t-52 31.5zM200 284q61 0 113 60.5t80.5 156t28.5 200.5q-1 34 -13 76q-5 16 -12 29q-27 58 -91 66q-41 0 -78.5 -44t-66.5 -116q-48 -120 -51 -251q-2 -62 18 -119q3 -9 9 -18q6 -10 10 -14q9 -12 20 -18q13 -8 33 -8z
M693 819q11 23 1 45t-37 35q-59 29 -141 -22q27 -54 78 -81q34 -16 60.5 -9t38.5 32z" />
    <glyph glyph-name="h" unicode="h" horiz-adv-x="681" 
d="M627 222l16 -6q-69 -134 -113 -188.5t-98 -53.5q-40 0 -63 42t-2 119q6 26 80 253q38 97 76 245.5t7 176.5l-8 5q-44 12 -146 -133q-113 -161 -276 -491l-59 -191h-92l98 333l262 930q11 38 -18 40l-118 7l2 8l267 55l-334 -1124l31 58q77 167 164.5 323t134.5 210
q55 65 107 65l24 -5q73 -28 70 -150q-3 -82 -43 -201l-141 -416q-11 -47 -4.5 -64t31.5 -19q30 0 66 43t58 86z" />
    <glyph glyph-name="i" unicode="i" horiz-adv-x="366" 
d="M259 906q39 0 62 -41.5t4 -118.5q-2 -9 -15 -49.5t-35.5 -109t-39.5 -122.5l-100 -333q-22 -80 28 -83q30 0 66 42.5t57 85.5l22 43l15 -5q-69 -135 -112.5 -189.5t-97.5 -53.5q-40 0 -63 42t-2 119q10 39 79 253l110 361q21 74 -18 81q-14 3 -30.5 -4.5t-31 -22.5
t-28.5 -34t-25 -38.5t-19.5 -35.5t-13.5 -27l-5 -10l-16 6q66 134 110.5 189t98.5 55zM463 1197q-5 -32 -27.5 -51t-47.5 -15q-26 5 -40 30t-9 56q5 32 27 51t47 15q26 -5 40.5 -30t9.5 -56z" />
    <glyph glyph-name="j" unicode="j" horiz-adv-x="317" 
d="M272 906q40 0 63 -42t2 -119q-7 -29 -77 -246q0 -1 -1 -3.5t-1 -3.5l-150 -492q-24 -74 -47 -128q-24 -58 -52 -111t-64 -106.5t-73 -92.5t-81.5 -63.5t-87.5 -24.5q-58 -1 -106 32t-68 88q-11 33 12.5 63t52.5 43l28 14q-1 -9 -1.5 -24t2.5 -52.5t11 -66t29.5 -51.5
t52.5 -21q143 6 315 529q1 1 1 3t1 3q6 20 19.5 63t19.5 64q72 232 78 252l100 334q11 47 4 63.5t-32 18.5q-30 0 -66 -42.5t-58 -85.5l-21 -43l-15 6q69 134 112.5 188.5t97.5 53.5zM414 1296q28 -7 42.5 -32.5t6.5 -53.5q-4 -25 -21 -42t-42 -22q-25 -4 -47 6t-35 32
q-28 49 8 90q17 19 41 25t47 -3z" />
    <glyph glyph-name="k" unicode="k" horiz-adv-x="763" 
d="M760 753q-15 -82 -117 -151.5t-246 -105.5q70 -76 84 -343v-5q0 -2 0.5 -5.5t0.5 -5.5q3 -43 20 -58.5t43 -17.5q30 0 66 43t57 86l22 43l16 -6q-69 -134 -113 -188.5t-98 -53.5q-42 0 -78.5 46t-37.5 143q-5 249 -31 311q-41 -8 -95 -13q-72 -138 -141 -287l-59 -185
h-104l100 334l262 929q12 39 -18 41l-118 6l1 9l267 54l-315 -1062l12 -4q14 31 37 73l94 188q209 400 392 366q54 -10 82 -59t15 -122zM299 567q167 9 292 59.5t137 119.5q6 33 -15 55t-65 30q-40 11 -82 5t-82 -30t-87 -83.5t-98 -155.5z" />
    <glyph glyph-name="l" unicode="l" horiz-adv-x="309" 
d="M94 61q30 0 66 43t58 86l21 43l16 -6q-69 -134 -113 -188.5t-98 -53.5q-40 0 -63 42t-2 119q6 23 76 243l255 874q11 38 -19 40l-118 7l2 8l267 55q-14 -59 -276 -896l-99 -333q-11 -47 -4.5 -64t31.5 -19z" />
    <glyph glyph-name="m" unicode="m" horiz-adv-x="1089" 
d="M1041 235l16 -6q-69 -134 -113 -188.5t-98 -53.5q-39 0 -62.5 42.5t-2.5 118.5q6 26 80 253q38 97 76 245.5t7 176.5l-8 5q-44 12 -147 -134q-97 -139 -234 -407l-35 -108l-51 -179h-101q2 10 22.5 70.5t53 157.5t56.5 170q38 97 76 245.5t7 176.5l-8 5q-44 12 -146 -133
q-93 -133 -222 -384l-31 -120l-59 -185l-95 -3l99 336l88 300l32 112q21 72 -19 80q-14 3 -30.5 -4.5t-31 -22.5t-28.5 -33.5t-25 -38t-19.5 -35.5t-13.5 -26l-5 -11l-16 5q67 134 111 189.5t98 55.5q39 0 62 -42t4 -119q-22 -93 -81 -281l-17 -67q71 147 145.5 275.5
t115.5 176.5q55 65 108 65l24 -5q73 -29 69 -151q-3 -82 -43 -200l-44 -129q69 139 138.5 258t108.5 165q55 65 108 65l24 -5q73 -29 69 -151q-3 -82 -43 -200l-141 -416q-11 -47 -4 -63.5t32 -18.5q30 0 66 43t57 85z" />
    <glyph glyph-name="n" unicode="n" horiz-adv-x="768" 
d="M709 235l15 -6q-69 -134 -112.5 -188.5t-97.5 -53.5q-39 0 -62.5 42.5t-2.5 118.5q10 39 79 253q38 97 76 245.5t7 176.5l-8 5q-43 12 -145 -132q-112 -160 -276 -491l-66 -204l-94 -1l98 334l88 300l32 112q21 72 -19 80q-14 3 -30.5 -4.5t-31 -22.5t-28.5 -33.5
t-25 -38t-19.5 -35.5t-13.5 -26l-5 -11l-15 6q67 134 110.5 189t97.5 55q39 0 62 -42t4 -119q-25 -106 -80 -281l-47 -181l20 38q77 167 164.5 323t134.5 210q55 65 108 65l24 -5q73 -29 69 -151q-3 -82 -43 -200l-141 -416q-11 -47 -4 -63.5t32 -18.5q30 0 66 43t58 85z
" />
    <glyph glyph-name="o" unicode="o" horiz-adv-x="632" 
d="M455 904q69 -20 112 -99.5t47.5 -190t-32.5 -239.5q-58 -186 -180.5 -298.5t-227.5 -81.5q-69 20 -111.5 98.5t-46.5 188.5t33 239q58 187 179.5 300.5t226.5 82.5zM483 439q33 106 41 195.5t-15 154t-78 80.5q-54 16 -109.5 -40.5t-96 -144t-75.5 -200.5
q-33 -105 -40.5 -201.5t16 -167.5t78.5 -87q41 -12 82 19.5t77 97t64.5 137t55.5 157.5z" />
    <glyph glyph-name="p" unicode="p" horiz-adv-x="698" 
d="M577 918l29 -3q80 -19 96 -120q27 -168 -139 -520q-58 -123 -142 -203.5t-155 -80.5q-5 -1 -14 -2t-31 5t-39 21t-30 53.5t-12 95.5l-151 -521q-12 -39 18 -41l122 -8l-1 -16l-246 -3l248 847l74 250l25 87q21 73 -19 81q-31 8 -69 -35t-61 -90l-23 -47l-15 6
q67 134 110.5 189t97.5 55q39 0 62 -41.5t4 -118.5q-29 -116 -93 -304l17 33q37 71 58.5 111t55 98.5t57.5 91.5t53.5 66.5t57.5 48.5t55 15zM504 270q43 104 70.5 223t27.5 198q0 142 -74 142q-18 0 -42 -19.5t-51.5 -57t-55 -81t-60.5 -103.5t-60 -111t-61 -116
q-2 -5 -3.5 -7.5t-4 -6.5t-4 -8t-3.5 -7q-29 -118 0 -185q17 -38 51 -56.5t60 -18.5l25 1q50 0 97 58t88 155z" />
    <glyph glyph-name="q" unicode="q" horiz-adv-x="630" 
d="M619 676l-290 -1046q-12 -39 18 -41l118 -6l-2 -8l-267 -55l104 348l221 742l-42 -100q-213 -522 -346 -522q-66 0 -100.5 49.5t-37.5 112.5q-5 107 35.5 242.5t105.5 250.5t152 193.5t167 78.5q49 2 91.5 -21.5t67.5 -66.5l51 66h15zM166 71q49 0 139 142.5t159.5 310
t69.5 239.5q0 55 -28 85.5t-74 30.5q-78 0 -150 -98t-117.5 -241t-59.5 -294q-7 -71 10 -123t51 -52z" />
    <glyph glyph-name="r" unicode="r" horiz-adv-x="600" 
d="M666 905h1q23 -7 35 -29t7 -46t-25.5 -38t-45.5 -11q-47 0 -100 60l-2 -1q-73 -65 -156 -220t-211 -441l-62 -179l-85 10l96 324l22 76v-1l96 337q21 74 -18 81q-31 8 -69 -35t-61 -90l-23 -46l-16 5q67 134 111 189.5t98 55.5q39 0 62 -42t4 -119q-37 -141 -87 -303
l-1 -5l-49 -167l-6 -21q153 339 193 414q76 145 143 202l-4 5q-54 83 -139 128q-52 26 -105 7.5t-118 -85.5l-11 10q58 85 132 125t145 5q23 -11 41.5 -26t33 -34t23.5 -33.5t22 -38t20 -34.5l2 -2q63 34 107 13zM688 836q3 37 -32 47q-45 8 -82 -15h-1l-1 -1q11 -20 18 -31
t20.5 -21t27.5 -10q36 -3 50 31z" />
    <glyph glyph-name="s" unicode="s" horiz-adv-x="507" 
d="M527 790q11 -33 -12.5 -63t-52.5 -43l-28 -14q1 9 1.5 24t-2.5 52.5t-11 66t-29.5 51t-52.5 21.5q-70 -1 -119.5 -51t-50.5 -121q0 -28 3 -45.5t14 -45t37.5 -57t69.5 -63.5q101 -81 134.5 -141.5t33.5 -131.5q0 -91 -92.5 -168.5t-187.5 -77.5q-72 -1 -140.5 35.5
t-83.5 84.5q-11 33 12.5 63t52.5 44l29 13q-1 -9 -1.5 -23.5t2.5 -51.5t11 -65t29.5 -51t52.5 -23q58 -1 102.5 16t69.5 45t37 59t13 63q2 56 -21 98t-116 130q-50 47 -81.5 86t-44 71.5t-15.5 52.5t-3 47q1 86 78.5 160t165.5 74q70 1 125 -35t71 -86z" />
    <glyph glyph-name="t" unicode="t" horiz-adv-x="452" 
d="M330 876h215l-52 -61h-182l-201 -679q-21 -73 18 -80q14 -3 30.5 4.5t31 22.5t28.5 33.5t25 38t19.5 35.5t13.5 26l5 11l16 -6q-66 -134 -110.5 -189t-98.5 -55q-39 0 -62 41.5t-4 118.5q5 21 87 303.5t109 370.5l-136 4l3 15l151 48l60 213l107 56z" />
    <glyph glyph-name="u" unicode="u" horiz-adv-x="770" 
d="M538 56q14 -3 30.5 4.5t30.5 22.5t28 33.5t25 38t19.5 35.5t13.5 26l5 11l16 -5q-67 -135 -110.5 -190t-97.5 -55q-39 0 -62.5 42t-4.5 119q27 113 87 305l47 181l-20 -38q-77 -167 -164.5 -323t-134.5 -210q-55 -65 -108 -65l-24 5q-73 29 -69 151q3 82 43 200l141 416
q11 47 4 63.5t-32 18.5q-30 0 -66 -43t-57 -85l-22 -43l-15 6q69 134 112.5 188.5t97.5 53.5q39 0 62.5 -42.5t2.5 -118.5q-10 -39 -79 -253q-38 -97 -76 -245.5t-7 -176.5l8 -5q43 -12 145 133q113 161 276 491l66 203l94 1l-98 -334l-82 -281l-44 -154q-21 -73 19 -81z
" />
    <glyph glyph-name="v" unicode="v" horiz-adv-x="696" 
d="M878 1125q78 18 140.5 -37.5t99.5 -152.5l-12 -7q-48 80 -95.5 109.5t-104.5 16.5q-94 -24 -165 -92l-24 -20q30 -96 -12 -260t-157 -376q-2 -4 -14 -26q-36 -61 -58 -96t-54.5 -80t-56.5 -69t-53.5 -41t-57.5 -17q-79 -1 -121 48t-42 134q0 88 95.5 287t192.5 363
l-152 17q-26 5 -52.5 -10.5t-45.5 -41t-34 -52t-23 -46.5l-8 -19l-15 6l99 241h286q0 -18 -59 -156t-120 -298.5t-66 -229.5q-5 -80 26 -129t100 -22q32 13 91.5 75.5t107.5 148.5q2 4 6 11.5t6 10.5q227 415 171 612q-40 -30 -91 -42q-48 -11 -86.5 7t-47.5 59
q-8 34 10.5 61.5t61.5 36.5q4 1 12 1v1q39 5 75.5 -10t60.5 -47q0 -1 1.5 -3.5t2.5 -3.5l8 8q8 8 33.5 36t40 41t42 29.5t58.5 23.5zM588 913q53 14 90 57q-1 1 -3 4.5t-3 5.5q-38 52 -105 49q-6 0 -18 -2q-29 -6 -44 -25t-9 -44q6 -27 31 -40t61 -5z" />
    <glyph glyph-name="w" unicode="w" horiz-adv-x="1091" 
d="M1272 1126q78 18 141 -37.5t100 -152.5l-13 -7q-48 80 -95 109.5t-104 16.5q-94 -24 -165 -92l-24 -20q30 -96 -12.5 -259.5t-157.5 -376.5q-2 -4 -14 -26v0q-36 -60 -58 -95.5t-54.5 -80.5t-56.5 -68.5t-53.5 -40.5t-57.5 -17q-79 -1 -120.5 47.5t-41.5 133.5q2 29 7 53
q-70 -115 -126 -174.5t-113 -59.5q-79 -1 -121 47.5t-42 133.5q0 88 95.5 288t192.5 363l-152 16q-26 5 -52.5 -10.5t-45.5 -41t-34 -52.5t-23 -46l-8 -19l-15 6l99 241h286q0 -18 -59 -156t-120 -298.5t-66 -229.5q-5 -80 26 -129t100 -22q32 13 91.5 75.5t107.5 148.5
q2 3 5 8.5t4 8.5q78 209 250 500l-151 16q-41 8 -82 -34t-62 -89l-20 -46l-15 6l100 241h286q0 -18 -59 -156t-120.5 -298.5t-66.5 -229.5q-5 -80 26 -129t100 -22q32 13 92 75.5t108 148.5q2 4 6 11t6 11q226 413 170 612q-41 -30 -90 -42q-48 -11 -87 7t-48 59
q-8 34 11 61.5t62 36.5q8 2 11 2q39 6 76 -9.5t61 -47.5q2 -2 4 -6l7 7q8 8 33.5 36t40 41t42 29.5t58.5 23.5zM891 959q6 -27 30.5 -40t60.5 -5q53 14 91 58l-6 9q-39 53 -105 50q-6 0 -18 -2q-29 -6 -44 -25.5t-9 -44.5z" />
    <glyph glyph-name="x" unicode="x" horiz-adv-x="843" 
d="M857 785q11 -33 -12.5 -63t-52.5 -44l-29 -13q0 5 0.5 12.5t0.5 30.5t-2 43.5t-8.5 45t-16 42.5t-27 29.5t-40.5 10.5q-14 -1 -28 -8t-27.5 -21.5t-25 -28t-25 -38.5t-22 -41.5t-22.5 -48.5t-20.5 -48t-21 -52t-19.5 -49q8 -57 17 -165q11 -103 42 -222v-1v1q0 -1 1 -4.5
t2 -5.5q0 -1 1 -3v-2l1 -2q30 -86 90 -84q15 1 31.5 11t31 25t28 33t25 36t19.5 33t13 24l5 9l16 -5q-66 -134 -110.5 -189t-98.5 -55h-3h-3q-68 2 -111.5 77t-68.5 239q-72 -172 -119.5 -241t-111.5 -75h-4h-2h-6q-55 3 -99.5 35t-63.5 84q-11 33 12.5 63t52.5 44l29 13
q0 -5 -0.5 -12.5t-0.5 -30.5t2 -43.5t8.5 -45t16 -42.5t27 -29.5t40.5 -10.5q23 2 46.5 22t41 44.5t39.5 71t34.5 76t34.5 84.5q11 27 16 40q-8 64 -16 162q-11 104 -42 223v0l-3 9q0 1 -1 3q0 1 -1 3l-1 2q-29 85 -90 83q-15 -1 -31.5 -11t-31 -25t-28 -33t-25 -36
t-19.5 -33t-13 -24l-5 -9l-15 6q67 134 110.5 189t97.5 55h3h4q68 -2 111 -77t68 -238q71 169 118.5 238.5t111.5 75.5h2l2 1h2q1 0 3 -0.5t3 -0.5q55 -3 99.5 -35t63.5 -84z" />
    <glyph glyph-name="y" unicode="y" horiz-adv-x="591" 
d="M594 640q-80 -343 -374 -739v-1q-85 -117 -197.5 -211.5t-206.5 -97.5h-4h-1q-72 0 -138 36.5t-81 83.5q-11 33 12.5 63t51.5 44l29 13q1 -9 3 -23.5t11 -51.5t22 -65t38.5 -51t56.5 -23q87 3 201 97t237 267q-25 131 -39 258t-16 214.5t0 156t6 102.5l4 33
q7 44 2.5 60.5t-21.5 19.5q-14 3 -30.5 -4.5t-30.5 -22.5t-28 -33.5t-25 -38t-19.5 -35.5t-13.5 -27l-5 -10l-16 6q67 134 110.5 189t97.5 55q36 0 55 -39.5t12 -121.5q-8 -136 -8 -231.5t11 -187t19.5 -137t17.5 -80.5q153 254 229 543q8 31 -5.5 62.5t-39.5 54t-52.5 40.5
t-46.5 27l-20 9q2 2 5 5.5t12.5 12.5t19.5 16.5t24 15t27 10.5t28 1t28 -12q41 -31 55.5 -103.5t-7.5 -148.5z" />
    <glyph glyph-name="z" unicode="z" horiz-adv-x="677" 
d="M580 731q-52 1 -101 23l-406 -603q22 5 41 5q62 -2 119 -31l31 -16q87 -43 184 -38q61 -1 94.5 28.5t63.5 116.5l8 -4q-7 -40 -16 -73t-23.5 -64t-33.5 -52t-46.5 -33.5t-60.5 -12.5q-32 0 -63.5 10.5t-48 20.5t-48.5 32.5t-41 28.5l-26 15q-47 38 -106 41q-25 0 -47 -9
q-4 -41 7.5 -74.5t24.5 -45.5l14 -13h-14q-37 -2 -66 21l-1 1q-28 24 -26 58q0 28 19 52l404 601q16 28 31 53l-18 9q-28 15 -61.5 22.5t-56.5 9t-67 2.5q-65 1 -106 -28.5t-70 -112.5l-9 3q16 102 67.5 169t132.5 66q32 0 63.5 -10.5t48 -20t49 -32.5t40.5 -28l15 -9
q23 31 45 52.5t37 29.5t27 11.5t18 2.5l5 -1q45 -1 69 -23.5t24 -57.5q-1 -42 -35.5 -67.5t-84.5 -24.5zM607 882q-31 -1 -57 -24.5t-36.5 -43t-10.5 -23.5q41 -27 90 -29q38 -1 62.5 17.5t24.5 45.5q0 26 -21 41.5t-52 15.5z" />
    <glyph glyph-name="braceleft" unicode="{" horiz-adv-x="346" 
d="M205 1039q0 174 90.5 248.5t266.5 74.5l-5 -20q-136 0 -203.5 -64t-67.5 -206q0 -45 11 -127t11 -120q4 -104 -60.5 -185.5t-166.5 -101.5q62 -12 102.5 -61t39.5 -113q0 -43 -18 -94.5t-43.5 -99.5t-51 -97t-43.5 -102t-18 -100q0 -71 48.5 -104t147.5 -33l-5 -21
q-136 0 -199.5 41.5t-63.5 132.5q0 55 18 112.5t44 106t52.5 95t44.5 96t18 91.5q0 60 -35 99t-97 40l3 21q87 2 144.5 70t57.5 170q0 38 -11 121t-11 130z" />
    <glyph glyph-name="verticalbar" unicode="|" horiz-adv-x="184" 
d="M215 1362h38l-287 -1472h-38z" />
    <glyph glyph-name="braceright" unicode="}" horiz-adv-x="348" 
d="M156 687q0 -60 34.5 -99t97.5 -40l-3 -21q-88 -1 -146 -69.5t-58 -170.5q0 -37 12 -120.5t12 -129.5q0 -174 -90.5 -249t-265.5 -75l5 21q136 0 203 64t67 206q0 45 -12 127t-12 120q-4 104 61 186t168 101q-62 12 -102 61t-39 113q0 53 27 120t59 122t59 124.5t27 125.5
q0 72 -48.5 105t-146.5 33l5 20q134 0 197.5 -41.5t63.5 -132.5q0 -66 -27.5 -139.5t-60 -127t-60 -118.5t-27.5 -116z" />
    <glyph glyph-name="asciitilde" unicode="~" horiz-adv-x="745" 
d="M705 752l19 -5q-70 -195 -194 -195q-40 0 -87 23t-82.5 50t-79.5 50t-80 23q-47 0 -83 -36.5t-65 -111.5l-19 5q67 195 194 195q40 0 86.5 -23t82 -50t80 -50t80.5 -23q47 0 83 36.5t65 111.5z" />
    <glyph glyph-name="nonbreakingspace" unicode="&#xa0;" horiz-adv-x="657" 
 />
    <glyph glyph-name="sterling" unicode="&#xa3;" horiz-adv-x="819" 
d="M776 1048l-24 -192h-15q0 11 -1 29.5t-7 68t-15.5 90t-28 81.5t-43.5 57q-61 41 -134 41q-113 0 -173.5 -98t-60.5 -251q0 -34 16 -221h281l-5 -32h-273q5 -47 5 -83q0 -228 -187 -388q67 -3 186 -42.5t177 -39.5q54 0 96 24.5t62.5 53.5t40.5 70l27 4q-9 -33 -19 -59
t-31 -62t-46.5 -60t-66.5 -41t-90 -17q-58 0 -134 24t-138.5 48t-88.5 24q-50 0 -139 -77l-14 32q75 58 118 99t80.5 96.5t52.5 122.5t15 157q0 53 -8 114h-131l7 32h121q-19 121 -20 215q0 184 89 302.5t235 118.5q206 0 284 -240v-1z" />
    <glyph glyph-name="softhyphen" unicode="&#xad;" horiz-adv-x="0" 
 />
    <glyph glyph-name="Agrave" unicode="&#xc0;" horiz-adv-x="907" 
d="M808 1290h-32l-493 303l138 41zM508 22q34 2 51 24t14 60l-29 423h-311l-148 -338q-41 -90 -35.5 -127.5t63.5 -41.5l52 -4l3 -18h-314l2 18l27 2q40 3 68.5 26t61 78t84.5 169l396 876l-5 101h127l71 -1131q5 -60 23.5 -86.5t60.5 -30.5l39 -4l1 -18h-372l1 18zM242 549
h301l-33 559l-3 20z" />
    <glyph glyph-name="Aacute" unicode="&#xc1;" horiz-adv-x="909" 
d="M804 1593l-493 -303h-32l386 344zM510 22q34 2 51 24t14 60l-29 423h-311l-148 -338q-41 -90 -35.5 -127.5t63.5 -41.5l52 -4l3 -18h-314l3 18l26 2q40 3 68.5 26t61 78t84.5 169l396 876l-5 101h127l71 -1131q5 -60 23.5 -86.5t60.5 -30.5l39 -4l1 -18h-372l1 18z
M244 549h301l-33 559l-2 20z" />
    <glyph glyph-name="Acircumflex" unicode="&#xc2;" horiz-adv-x="905" 
d="M554 1538l-254 -246h-36l290 402l291 -402h-37zM772 22l39 -4l1 -18h-372l1 18l69 4q34 2 51 24t14 60l-29 423h-311l-148 -338q-41 -90 -35.5 -127.5t63.5 -41.5l52 -4l3 -18h-314l3 18l26 2q40 3 68.5 26t61 78t84.5 169l396 876l-5 101h127l71 -1131q5 -60 23.5 -86.5
t60.5 -30.5zM244 549h301l-33 559l-3 20z" />
    <glyph glyph-name="Atilde" unicode="&#xc3;" horiz-adv-x="905" 
d="M874 1523l11 -5q-23 -59 -58.5 -95.5t-70.5 -47t-66.5 -12t-51.5 4.5l-19 5l-166 65q-27 11 -68 12t-86.5 -18t-63.5 -60l-9 3q22 59 57.5 95.5t70 46.5t66 12t50.5 -3l20 -6l166 -64q19 -8 49.5 -9t64 4.5t63 24t41.5 47.5zM772 22l39 -4l1 -18h-372l1 18l69 4
q34 2 51 24t14 60l-29 423h-311l-148 -338q-41 -90 -35.5 -127.5t63.5 -41.5l52 -4l3 -18h-314l3 18l26 2q40 3 68.5 26t61 78t84.5 169l396 876l-5 101h127l71 -1131q5 -60 23.5 -86.5t60.5 -30.5zM244 549h301l-33 559l-3 20z" />
    <glyph glyph-name="Adieresis" unicode="&#xc4;" horiz-adv-x="907" 
d="M400 1397q-35 0 -60 25t-25 60q0 26 14.5 48t38.5 33q53 23 94 -18q19 -19 24 -45t-5 -50q-11 -24 -33 -38.5t-48 -14.5zM710 1397q-35 2 -59.5 26.5t-24.5 59.5t24.5 60t59.5 27q50 2 76 -43q26 -44 0 -87q-26 -45 -76 -43zM508 22q34 2 51 24t14 60l-29 423h-311
l-148 -338q-41 -90 -35.5 -127.5t63.5 -41.5l52 -4l3 -18h-314l2 18l27 2q40 3 68.5 26t61 78t84.5 169l396 876l-5 101h127l71 -1131q5 -60 23.5 -86.5t60.5 -30.5l39 -4l1 -18h-372l1 18zM242 549h301l-33 559l-3 20z" />
    <glyph glyph-name="Aring" unicode="&#xc5;" horiz-adv-x="907" 
d="M508 22q34 2 51 24t14 60l-29 423h-311l-148 -337q-41 -90 -35.5 -128t63.5 -42l52 -4l3 -17h-314l2 17l27 2q40 3 68.5 26t61 78t84.5 169l396 876l-4 86q-55 19 -85.5 69.5t-22.5 108.5t51.5 97.5t101.5 43.5t105.5 -30.5t62.5 -91.5t-9.5 -110t-77.5 -79l71 -1124
q5 -60 23.5 -86.5t60.5 -30.5l39 -4l1 -18h-372l1 18zM398 1410q0 -49 29 -88t75 -52h82q54 16 83 64t19 103t-55.5 89t-101.5 29t-93.5 -47t-37.5 -98zM242 549h301l-33 559l-2 20z" />
    <glyph glyph-name="AE" unicode="&#xc6;" horiz-adv-x="1228" 
d="M1239 1270l28 -333l-15 -3q-11 127 -88.5 223t-195.5 96h-134l-109 -568h300l-8 -18h-296l-124 -649h125q155 0 252.5 66.5t153.5 202.5l15 -2l-107 -285h-685l1 18l71 4q51 2 60 41l91 468h-330l-159 -340q-41 -90 -35.5 -127.5t63.5 -41.5l53 -4l3 -18h-315l3 18l26 2
q59 5 100 56.5t114 215.5l492 978h650zM703 1199q5 23 -6.5 36t-44.5 14l-45 3l-354 -702h324z" />
    <glyph glyph-name="Ccedilla" unicode="&#xc7;" horiz-adv-x="819" 
d="M823 1154q8 -25 -0.5 -49t-26.5 -40t-37 -29t-33 -19l-15 -6q1 10 2 26.5t-1.5 59.5t-10 76.5t-28.5 64t-52 35.5q-3 0 -8.5 0.5t-8.5 0.5q-87 0 -162.5 -55.5t-128 -145.5t-90.5 -204.5t-56 -232.5t-18 -229q0 -403 246 -403q222 0 341 330h23q-2 -8 -6.5 -20.5t-20 -50
t-34 -71.5t-49.5 -76t-65 -72t-81.5 -51t-99.5 -21q-25 0 -51 3l-17 -50q98 18 150 -29q44 -40 34 -98q-15 -121 -154 -121q-73 0 -98 34l-10 14l53 -11l-1 -6l5 -3q1 1 -1 5q24 -14 52 -12q36 -3 63 22q27 26 24 63q0 51 -36 81q-41 32 -116 14l-11 -2l34 103
q-147 27 -226.5 155.5t-79.5 322.5q0 152 43 302.5t117 270.5t184 194.5t235 74.5q12 0 34 -2q65 -4 117.5 -42.5t75.5 -100.5z" />
    <glyph glyph-name="Egrave" unicode="&#xc8;" horiz-adv-x="770" 
d="M718 1339h-32l-493 303l139 41zM780 1270l27 -333l-15 -3q-7 81 -41.5 152t-98 119t-143.5 48h-135l-109 -568h300l-8 -18h-296l-124 -649h125q155 0 252.5 66.5t153.5 202.5l15 -2l-107 -285h-685l1 18l71 4q52 2 61 41l219 1136q5 23 -6.5 36t-44.5 14l-63 4v17h651z
" />
    <glyph glyph-name="Eacute" unicode="&#xc9;" horiz-adv-x="768" 
d="M790 1618l-493 -303h-32l386 343zM780 1270l27 -333l-15 -3q-7 81 -41.5 152t-98 119t-143.5 48h-135l-109 -568h300l-8 -18h-296l-124 -649h125q155 0 252.5 66.5t153.5 202.5l15 -2l-107 -285h-685l1 18l71 4q52 2 61 41l219 1136q5 23 -6.5 36t-44.5 14l-63 4v17h651z
" />
    <glyph glyph-name="Ecircumflex" unicode="&#xca;" horiz-adv-x="770" 
d="M525 1587l-254 -246h-36l290 402l291 -402h-37zM129 1270h651l27 -333l-15 -3q-7 81 -41.5 152t-98.5 119t-143 48h-134l-110 -568h300l-8 -18h-296l-124 -649h125q155 0 252.5 66.5t153.5 202.5l15 -2l-107 -285h-685l1 18l71 4q52 2 61 41l219 1136q5 23 -6.5 36
t-44.5 14l-63 4v17z" />
    <glyph glyph-name="Edieresis" unicode="&#xcb;" horiz-adv-x="770" 
d="M347 1397q-35 2 -59 26.5t-24 59.5t24 60t59 27q50 2 76 -43q26 -44 0 -87q-26 -45 -76 -43zM658 1397q-35 1 -60 26t-25 60t25 60.5t60 26.5q35 -1 60 -26.5t25 -60.5t-25 -60t-60 -26zM780 1270l27 -333l-15 -3q-7 81 -41.5 152t-98 119t-143.5 48h-135l-109 -568h300
l-8 -18h-296l-124 -649h125q155 0 252.5 66.5t153.5 202.5l15 -2l-107 -285h-685l1 18l71 4q52 2 61 41l219 1136q5 23 -6.5 36t-44.5 14l-63 4v17h651z" />
    <glyph glyph-name="Igrave" unicode="&#xcc;" horiz-adv-x="401" 
d="M193 1683l387 -344h-32l-493 303zM127 1253v17h388l-1 -17l-80 -4q-58 -2 -66 -40l-219 -1140q-4 -22 5 -34t42 -13l75 -4v-18h-384v18l77 4q57 2 65 39l219 1140q1 12 1 22.5t-11.5 17.5t-34.5 8z" />
    <glyph glyph-name="Iacute" unicode="&#xcd;" horiz-adv-x="399" 
d="M631 1642l-493 -303h-32l386 344zM127 1253v17h388l-1 -17l-80 -4q-58 -2 -66 -40l-219 -1140q-4 -22 5 -34t42 -13l75 -4v-18h-384v18l77 4q57 2 65 39l219 1140q1 12 1 22.5t-11.5 17.5t-34.5 8z" />
    <glyph glyph-name="Icircumflex" unicode="&#xce;" horiz-adv-x="399" 
d="M313 1743l290 -402h-36l-254 246l-254 -246h-36zM127 1253v17h388l-1 -17l-80 -4q-58 -2 -66 -40l-219 -1140q-4 -22 5 -34t42 -13l75 -4v-18h-384v18l77 4q57 2 65 39l219 1140q1 12 1 22.5t-11.5 17.5t-34.5 8z" />
    <glyph glyph-name="Idieresis" unicode="&#xcf;" horiz-adv-x="399" 
d="M175 1399q-34 -1 -60 24q-25 25 -25 59q-2 35 24 62q24 26 61 26q35 -1 60.5 -27t25.5 -61q-1 -34 -26 -58.5t-60 -24.5zM485 1570q35 0 61 -26q24 -24 24 -62q-1 -34 -25.5 -58.5t-59.5 -24.5t-59.5 24.5t-25.5 58.5q0 38 24 62q26 26 61 26zM127 1253v17h388l-1 -17
l-80 -4q-58 -2 -66 -40l-219 -1140q-4 -22 5 -34t42 -13l75 -4v-18h-384v18l77 4q57 2 65 39l219 1140q1 12 1 22.5t-11.5 17.5t-34.5 8z" />
    <glyph glyph-name="Ntilde" unicode="&#xd1;" horiz-adv-x="935" 
d="M518 1472q-28 11 -70.5 14t-90.5 -3.5t-91.5 -34t-63.5 -72.5l-13 4q32 85 83.5 137.5t101.5 67.5t95.5 17.5t73.5 -5.5l28 -8l239 -92q27 -11 71.5 -13t92.5 6t91 35t61 68l15 -6q-24 -62 -58.5 -107.5t-70 -67.5t-73 -35t-69.5 -13t-57.5 2.5t-40.5 7.5l-15 4z
M756 1253l1 17h296l-1 -17l-38 -2q-97 -5 -110 -74l-229 -1185h-55l-337 1112l-14 45l-200 -1047q-6 -36 19 -57.5t84 -24.5l35 -2v-18h-308l1 18l39 2q91 5 104 74l209 1079q-37 65 -112 78l-18 2v17h238l317 -1040l10 -36l189 971q8 41 -9.5 62t-75.5 24z" />
    <glyph glyph-name="Ograve" unicode="&#xd2;" horiz-adv-x="956" 
d="M843 1290h-32l-493 303l138 41zM574 1299q166 0 266 -131.5t100 -352.5q0 -172 -49.5 -330.5t-129 -269.5t-179.5 -177t-199 -66q-166 0 -266 131t-100 352q0 172 49.5 331t129 270t179.5 177t199 66zM381 4q89 0 171.5 82.5t136.5 203t86.5 251t32.5 231.5
q0 241 -55 367.5t-177 126.5q-89 0 -171.5 -82.5t-136.5 -203t-86.5 -251t-32.5 -231.5q0 -241 55 -367.5t177 -126.5z" />
    <glyph glyph-name="Oacute" unicode="&#xd3;" horiz-adv-x="956" 
d="M823 1593l-493 -303h-32l386 344zM574 1299q166 0 266 -131.5t100 -352.5q0 -172 -49.5 -330.5t-129 -269.5t-179.5 -177t-199 -66q-166 0 -266 131t-100 352q0 172 49.5 331t129 270t179.5 177t199 66zM381 4q89 0 171.5 82.5t136.5 203t86.5 251t32.5 231.5
q0 241 -55 367.5t-177 126.5q-89 0 -171.5 -82.5t-136.5 -203t-86.5 -251t-32.5 -231.5q0 -241 55 -367.5t177 -126.5z" />
    <glyph glyph-name="Ocircumflex" unicode="&#xd4;" horiz-adv-x="958" 
d="M594 1538l-254 -246h-37l291 402l290 -402h-36zM574 1299q166 0 266 -131.5t100 -352.5q0 -172 -49.5 -330.5t-129 -269.5t-179.5 -177t-199 -66q-166 0 -266 131t-100 352q0 172 49.5 331t129 270t179.5 177t199 66zM381 4q89 0 171.5 82.5t136.5 203t86.5 251
t32.5 231.5q0 241 -55 367.5t-177 126.5q-89 0 -171.5 -82.5t-136.5 -203t-86.5 -251t-32.5 -231.5q0 -241 55 -367.5t177 -126.5z" />
    <glyph glyph-name="Otilde" unicode="&#xd5;" horiz-adv-x="958" 
d="M1032 1593l13 -6q-24 -62 -58 -107.5t-69.5 -67.5t-72.5 -35t-69.5 -13t-58.5 2.5t-41 7.5l-15 4l-237 92q-41 16 -100.5 17.5t-124.5 -25.5t-93 -86l-13 4q33 85 84.5 137.5t101 67.5t95 17.5t73.5 -5.5l28 -8l241 -94q27 -10 71.5 -11.5t92.5 6.5t91 35t61 68z
M574 1299q166 0 266 -131.5t100 -352.5q0 -172 -49.5 -330.5t-129 -269.5t-179.5 -177t-199 -66q-166 0 -266 131t-100 352q0 172 49.5 331t129 270t179.5 177t199 66zM381 4q89 0 171.5 82.5t136.5 203t86.5 251t32.5 231.5q0 241 -55 367.5t-177 126.5q-89 0 -171.5 -82.5
t-136.5 -203t-86.5 -251t-32.5 -231.5q0 -241 55 -367.5t177 -126.5z" />
    <glyph glyph-name="Odieresis" unicode="&#xd6;" horiz-adv-x="956" 
d="M461 1397q-35 2 -59.5 26.5t-24.5 59.5t24.5 60t59.5 27q35 -1 60 -26.5t25 -60.5t-25 -60t-60 -26zM770 1397q-35 2 -59 26.5t-24 59.5t24 60t59 27q50 2 76 -43q26 -44 0 -87q-26 -45 -76 -43zM574 1299q166 0 266 -131.5t100 -352.5q0 -172 -49.5 -330.5t-129 -269.5
t-179.5 -177t-199 -66q-166 0 -266 131t-100 352q0 172 49.5 331t129 270t179.5 177t199 66zM381 4q89 0 171.5 82.5t136.5 203t86.5 251t32.5 231.5q0 241 -55 367.5t-177 126.5q-89 0 -171.5 -82.5t-136.5 -203t-86.5 -251t-32.5 -231.5q0 -241 55 -367.5t177 -126.5z" />
    <glyph glyph-name="Oslash" unicode="&#xd8;" horiz-adv-x="1216" 
d="M1350 1246l-303 -256q20 -88 20 -175q0 -172 -49.5 -330.5t-129 -269.5t-179.5 -177t-199 -66q-123 0 -211.5 74t-127.5 206l-303 -256l-7 10l307 259q-24 93 -24 190q0 172 49.5 331t129 270t179.5 177t199 66q126 0 216 -78.5t127 -217.5l298 252zM276 498
q0 -51 6 -137l648 546q-29 359 -227 359q-89 0 -171.5 -82.5t-136.5 -203t-86.5 -251t-32.5 -231.5zM935 772q0 71 -4 120l-648 -546q32 -342 225 -342q89 0 171.5 82.5t136.5 203t86.5 251t32.5 231.5z" />
    <glyph glyph-name="Ugrave" unicode="&#xd9;" 
d="M867 1315h-32l-493 303l139 40zM730 1268l298 2v-17l-54 -4q-43 -3 -60.5 -21t-24.5 -51l-151 -772q-17 -85 -35.5 -146.5t-49 -118.5t-70.5 -92t-99.5 -55.5t-135.5 -20.5q-96 0 -160.5 36t-92.5 100t-33 150t18 187l146 754q5 24 -3 36.5t-41 13.5l-63 4l1 17h357v-17
l-72 -4q-51 -2 -59 -42l-148 -768q-19 -83 -16 -155t23 -126t69.5 -85.5t124.5 -31.5q73 0 128.5 28t91.5 81.5t57.5 113t36.5 137.5l148 766q7 39 -4.5 58t-60.5 22l-65 4z" />
    <glyph glyph-name="Uacute" unicode="&#xda;" 
d="M889 1618l-493 -303h-32l386 343zM730 1268l298 2v-17l-54 -4q-43 -3 -60.5 -21t-24.5 -51l-151 -772q-17 -85 -35.5 -146.5t-49 -118.5t-70.5 -92t-99.5 -55.5t-135.5 -20.5q-96 0 -160.5 36t-92.5 100t-33 150t18 187l146 754q5 24 -3 36.5t-41 13.5l-63 4l1 17h357
v-17l-71 -4q-52 -2 -60 -42l-148 -768q-19 -83 -16 -155t23 -126t69.5 -85.5t124.5 -31.5q73 0 128.5 28t91.5 81.5t57.5 113t36.5 137.5l148 766q7 39 -4.5 58t-60.5 22l-65 4z" />
    <glyph glyph-name="Ucircumflex" unicode="&#xdb;" 
d="M631 1587l-254 -246h-36l290 402l290 -402h-36zM730 1268l298 2v-17l-54 -4q-43 -3 -60.5 -21t-24.5 -51l-151 -772q-17 -85 -35.5 -146.5t-49 -118.5t-70.5 -92t-99.5 -55.5t-135.5 -20.5q-96 0 -160.5 36t-92.5 100t-33 150t18 187l146 754q5 24 -3 36.5t-41 13.5
l-63 4l1 17h357v-17l-71 -4q-52 -2 -60 -42l-148 -768q-19 -83 -16 -155t23 -126t69.5 -85.5t124.5 -31.5q73 0 128.5 28t91.5 81.5t57.5 113t36.5 137.5l148 766q7 39 -4.5 58t-60.5 22l-65 4z" />
    <glyph glyph-name="Udieresis" unicode="&#xdc;" 
d="M464 1397q-35 2 -59 26.5t-24 59.5t24 60t59 27q35 -1 60 -26.5t25 -60.5t-25 -60t-60 -26zM773 1397q-35 2 -59 26.5t-24 59.5t24 60t59 27q50 2 76 -43q26 -44 0 -87q-26 -45 -76 -43zM730 1268l298 2v-17l-54 -4q-43 -3 -60.5 -21t-24.5 -51l-151 -772
q-17 -85 -35.5 -146.5t-49 -118.5t-70.5 -92t-99.5 -55.5t-135.5 -20.5q-96 0 -160.5 36t-92.5 100t-33 150t18 187l146 754q5 24 -3 36.5t-41 13.5l-63 4l1 17h357v-17l-71 -4q-52 -2 -60 -42l-148 -768q-19 -83 -16 -155t23 -126t69.5 -85.5t124.5 -31.5q73 0 128.5 28
t91.5 81.5t57.5 113t36.5 137.5l148 766q7 39 -4.5 58t-60.5 22l-65 4z" />
    <glyph glyph-name="Yacute" unicode="&#xdd;" horiz-adv-x="802" 
d="M836 1618l-493 -303h-32l387 343zM946 1270l1 -17l-34 -4q-44 -3 -80.5 -36.5t-85.5 -116.5l-289 -486l-103 -540q-4 -23 6.5 -34t56.5 -14l83 -4l2 -18h-432l2 18l87 4q30 1 47.5 8t22 14t7.5 19l99 517l-124 546q-16 71 -30.5 95.5t-46.5 27.5l-43 4v17h343l1 -17
l-57 -4q-73 -3 -53 -101l104 -503l5 -27l283 478q29 50 37.5 81.5t-4 49t-48.5 20.5l-55 6l-2 17h300z" />
    <glyph glyph-name="germandbls" unicode="&#xdf;" horiz-adv-x="673" 
d="M705 1175q0 -99 -72.5 -190t-183.5 -119q85 -101 130.5 -225.5t45.5 -257.5q0 -68 -17 -135t-50 -125.5t-89 -94.5t-125 -36l5 33q53 0 94.5 57.5t60.5 134.5t19 154q1 132 -44.5 255.5t-131.5 224.5v15q64 5 115 36.5t81 79t45.5 101.5t15.5 110q0 166 -96 166
q-80 0 -141.5 -108t-111.5 -355l-138 -681q-27 -137 -58.5 -241t-72.5 -188t-93.5 -128.5t-115.5 -45.5h-2h-1q-72 0 -139 36.5t-82 83.5q-11 33 12.5 63t52.5 43l29 14v-12.5t2 -30.5t6.5 -43.5t14 -45t22.5 -42.5t35 -29.5t50 -10.5q53 1 94 53.5t80.5 180.5t79.5 349
l111 612l18 66q53 238 147 365.5t207 127.5q94 0 142.5 -64.5t48.5 -152.5z" />
    <glyph glyph-name="agrave" unicode="&#xe0;" horiz-adv-x="710" 
d="M441 1337l386 -344h-32l-493 303zM568 496l-97 -336q-21 -73 19 -81q31 -8 69 35t61 90l23 46l15 -5q-67 -134 -110.5 -189t-97.5 -55q-39 0 -62 41.5t-4 118.5q28 112 93 303l67 194q-18 -35 -53.5 -105.5t-62.5 -123.5t-63.5 -122.5t-67 -119t-63 -94.5t-61.5 -68.5
t-52 -23.5q-61 0 -94.5 53.5t-33.5 139.5q0 95 43 223t106.5 240.5t143.5 191t146 78.5q49 0 83.5 -62.5t41.5 -146.5l114 207l31 -2zM170 86q22 0 54.5 37t73.5 109.5t74.5 138t83 165.5t75.5 149q-7 37 -23.5 74.5t-49.5 69t-71 31.5q-71 0 -141 -120t-109.5 -266.5
t-39.5 -245.5q0 -142 73 -142z" />
    <glyph glyph-name="aacute" unicode="&#xe1;" horiz-adv-x="708" 
d="M785 1296l-493 -303h-32l387 344zM568 496l-97 -336q-21 -73 19 -81q31 -8 69 35t61 90l23 46l15 -5q-67 -134 -110.5 -189t-97.5 -55q-39 0 -62 41.5t-4 118.5q28 112 93 303l67 194q-18 -35 -53.5 -105.5t-62.5 -123.5t-63.5 -122.5t-67 -119t-63 -94.5t-61.5 -68.5
t-52 -23.5q-61 0 -94.5 53.5t-33.5 139.5q0 95 43 223t106.5 240.5t143.5 191t146 78.5q49 0 83.5 -62.5t41.5 -146.5l114 207l31 -2zM97 228q0 -142 73 -142q22 0 54.5 37t73.5 109.5t74.5 138t83 165.5t75.5 149q-7 37 -23.5 74.5t-49.5 69t-71 31.5q-71 0 -141 -120
t-109.5 -266.5t-39.5 -245.5z" />
    <glyph glyph-name="acircumflex" unicode="&#xe2;" horiz-adv-x="710" 
d="M562 1345l290 -401h-36l-254 246l-254 -246h-36zM568 496l-97 -336q-21 -73 19 -81q31 -8 69 35t61 90l23 46l15 -5q-67 -134 -110.5 -189t-97.5 -55q-39 0 -62 41.5t-4 118.5q28 112 93 303l67 194q-18 -35 -53.5 -105.5t-62.5 -123.5t-63.5 -122.5t-67 -119t-63 -94.5
t-61.5 -68.5t-52 -23.5q-61 0 -94.5 53.5t-33.5 139.5q0 95 43 223t106.5 240.5t143.5 191t146 78.5q49 0 83.5 -62.5t41.5 -146.5l114 207l31 -2zM170 86q22 0 54.5 37t73.5 109.5t74.5 138t83 165.5t75.5 149q-7 37 -23.5 74.5t-49.5 69t-71 31.5q-71 0 -141 -120
t-109.5 -266.5t-39.5 -245.5q0 -142 73 -142z" />
    <glyph glyph-name="atilde" unicode="&#xe3;" horiz-adv-x="710" 
d="M879 1189l8 -3q-21 -55 -54.5 -89.5t-66 -44t-62 -11t-48.5 3.5l-18 5l-154 60q-27 10 -65 11t-80.5 -16.5t-60.5 -55.5l-8 2q21 55 54.5 89t66 43.5t62 11.5t47.5 -3l18 -5l156 -61q17 -7 46 -8t60.5 4.5t59 23t39.5 43.5zM568 497l-97 -337q-21 -73 19 -81q31 -8 69 35
t61 90l23 46l15 -5q-67 -134 -110.5 -189t-97.5 -55q-39 0 -62 41.5t-4 118.5q28 112 93 303l67 194q-18 -35 -53.5 -105.5t-62.5 -123.5t-63.5 -122.5t-67 -119t-63 -94.5t-61.5 -68.5t-52 -23.5q-61 0 -94.5 53.5t-33.5 139.5q0 95 43 223t106.5 240.5t143.5 191t146 78.5
q49 0 83.5 -62.5t41.5 -146.5l114 207l31 -2zM97 228q0 -142 73 -142q22 0 54.5 37t73.5 109.5t74.5 138t83 165.5t75.5 149q-7 37 -23.5 74.5t-49.5 69t-71 31.5q-71 0 -141 -120t-109.5 -266.5t-39.5 -245.5z" />
    <glyph glyph-name="adieresis" unicode="&#xe4;" horiz-adv-x="706" 
d="M375 1070q-35 1 -60 26.5t-25 60.5t25 60t60 26q35 -1 60 -26t25 -60t-25 -60.5t-60 -26.5zM684 1243q35 -1 60 -26t25 -60t-25 -60.5t-60 -26.5q-35 2 -59 27t-24 60t24 59.5t59 26.5zM568 496l-97 -336q-21 -73 19 -81q31 -8 69 35t61 90l23 46l15 -5
q-67 -134 -110.5 -189t-97.5 -55q-39 0 -62 41.5t-4 118.5q28 112 93 303l67 194q-18 -35 -53.5 -105.5t-62.5 -123.5t-63.5 -122.5t-67 -119t-63 -94.5t-61.5 -68.5t-52 -23.5q-61 0 -94.5 53.5t-33.5 139.5q0 95 43 223t106.5 240.5t143.5 191t146 78.5q49 0 83.5 -62.5
t41.5 -146.5l114 207l31 -2zM170 86q22 0 54.5 37t73.5 109.5t74.5 138t83 165.5t75.5 149q-7 37 -23.5 74.5t-49.5 69t-71 31.5q-71 0 -141 -120t-109.5 -266.5t-39.5 -245.5q0 -142 73 -142z" />
    <glyph glyph-name="aring" unicode="&#xe5;" horiz-adv-x="706" 
d="M567 987q-50 0 -88 36q-37 35 -37 89q0 52 36 88.5t88 36.5t89 -36t37 -88t-36.5 -89t-88.5 -37zM567 1213q-42 0 -71 -29q-30 -30 -30 -72q0 -41 30 -70.5t71 -29.5t70.5 29.5t29.5 70.5t-29.5 71t-70.5 30zM490 79q31 -8 69 35t61 90l23 47l15 -6q-67 -134 -110.5 -189
t-97.5 -55q-39 0 -62 41.5t-4 118.5q28 112 93 303l67 194q-18 -35 -53.5 -105.5t-62.5 -123.5t-63.5 -122.5t-67 -119t-63 -94.5t-61.5 -68.5t-52 -23.5q-61 0 -94.5 53.5t-33.5 139.5q0 95 43 223t106.5 240.5t143.5 191t146 78.5q49 0 83.5 -62t41.5 -146l114 206l31 -2
l-134 -426l-97 -337q-21 -73 19 -81zM170 86q22 0 54.5 37t73.5 109.5t74.5 138t83 165.5t75.5 149q-7 37 -23.5 74.5t-49.5 69t-71 31.5q-71 0 -141 -120t-109.5 -266.5t-39.5 -245.5q0 -142 73 -142z" />
    <glyph glyph-name="ae" unicode="&#xe6;" horiz-adv-x="966" 
d="M1002 796q0 -113 -160 -207q24 -149 13 -261t-49 -186.5t-87 -112t-102 -37.5q-64 0 -105.5 42t-57 100t-15.5 130q0 50 11 127h-9q-48 -94 -83 -155.5t-77.5 -122.5t-82.5 -91t-78 -30q-61 0 -95 54t-34 141q0 95 43.5 224.5t107.5 242.5t144 192t147 79q57 0 91.5 -55
t37.5 -158h8q61 97 132 155t138 58q74 0 118 -36.5t44 -92.5zM491 543q34 69 43 139q-7 37 -24 75t-50 69.5t-72 31.5q-54 0 -109.5 -72.5t-94.5 -175t-63.5 -210t-24.5 -179.5q0 -143 73 -143q28 0 64 35.5t80 107t81 139.5t91 171q2 4 3.5 6.5t2.5 5.5zM663 66
q32 0 66 33.5t63 98.5t40 161t-4 222q-125 -67 -260 -106q-22 -98 -22 -205q0 -101 27.5 -152.5t89.5 -51.5zM573 504q104 33 171 67t99.5 72.5t43.5 73.5t11 83q0 45 -18.5 70t-51.5 25q-71 0 -143.5 -114t-111.5 -277z" />
    <glyph glyph-name="ccedilla" unicode="&#xe7;" horiz-adv-x="561" 
d="M605 805q11 -33 -12.5 -63t-52.5 -44l-28 -13q1 9 1.5 23.5t-2.5 52t-11 66t-29.5 51t-52.5 21.5q-65 -3 -135 -94.5t-117.5 -237.5t-47.5 -290q0 -205 116 -205q56 0 107.5 53t111.5 152l20 -16q-28 -52 -51.5 -90t-60 -81.5t-80.5 -67t-92 -23.5h-8l-9 -24
q82 16 126 -25q37 -34 29 -83q-13 -103 -131 -103q-57 0 -82 29l-11 13l47 -9v-6l4 3q21 -11 42 -10q32 -3 53 18q22 22 20 52q0 42 -30 67q-45 30 -97 12l-11 -2l24 71q-51 10 -84.5 53.5t-46 97.5t-12.5 118q0 147 65 301t163.5 253.5t190.5 99.5q58 1 106 -32t68 -88z
" />
    <glyph glyph-name="egrave" unicode="&#xe8;" horiz-adv-x="542" 
d="M258 1337l386 -344h-32l-493 303zM411 924q74 0 117 -36.5t43 -91.5q0 -187 -430 -319q-23 -103 -23 -203t27 -151.5t89 -51.5q32 0 72.5 37t76.5 106t51.5 167t-2.5 221l14 9q39 -187 0.5 -323.5t-112 -213.5t-145.5 -77q-63 0 -104.5 42t-56.5 100t-15 129
q0 148 60.5 302t154 254t183.5 100zM145 505q104 32 170.5 66.5t98.5 72.5t43 73t11 83q0 93 -69 93q-70 0 -142.5 -113t-111.5 -275z" />
    <glyph glyph-name="eacute" unicode="&#xe9;" horiz-adv-x="540" 
d="M610 1296l-493 -303h-32l387 344zM411 924q74 0 117 -36.5t43 -91.5q0 -187 -430 -319q-23 -103 -23 -203t27 -151.5t89 -51.5q32 0 72.5 37t76.5 106t51.5 167t-2.5 221l14 9q39 -187 0.5 -323.5t-112 -213.5t-145.5 -77q-63 0 -104.5 42t-56.5 100t-15 129
q0 148 60.5 302t154 254t183.5 100zM145 505q104 32 170.5 66.5t98.5 72.5t43 73t11 83q0 93 -69 93q-70 0 -142.5 -113t-111.5 -275z" />
    <glyph glyph-name="ecircumflex" unicode="&#xea;" horiz-adv-x="546" 
d="M392 1345l290 -401h-36l-254 246l-254 -246h-36zM413 924q74 0 117.5 -36.5t43.5 -91.5q0 -187 -431 -319q-23 -103 -23 -203t27 -151.5t89 -51.5q32 0 72.5 37t76.5 106t51.5 167t-2.5 221l15 9q39 -187 0 -323.5t-112.5 -213.5t-145.5 -77q-63 0 -104.5 42t-56.5 100
t-15 129q0 148 60.5 302t154 254t183.5 100zM147 505q104 32 170.5 66.5t98.5 72.5t43 73t11 83q0 93 -69 93q-70 0 -142.5 -113t-111.5 -275z" />
    <glyph glyph-name="edieresis" unicode="&#xeb;" horiz-adv-x="542" 
d="M210 1070q-35 0 -60 25t-25 60q0 26 14.5 48t38.5 33q53 23 94 -18q19 -19 24 -45t-5 -50q-11 -24 -33 -38.5t-48 -14.5zM519 1243q23 1 44 -11t33 -32q26 -44 0 -87q-12 -20 -33 -32t-44 -11q-35 2 -59 27t-24 60t24 59.5t59 26.5zM411 924q74 0 117 -36.5t43 -91.5
q0 -187 -430 -319q-23 -103 -23 -203t27 -151.5t89 -51.5q32 0 72.5 37t76.5 106t51.5 167t-2.5 221l14 9q39 -187 0.5 -323.5t-112 -213.5t-145.5 -77q-63 0 -104.5 42t-56.5 100t-15 129q0 148 60.5 302t154 254t183.5 100zM145 505q104 32 170.5 66.5t98.5 72.5t43 73
t11 83q0 93 -69 93q-70 0 -142.5 -113t-111.5 -275z" />
    <glyph glyph-name="igrave" unicode="&#xec;" horiz-adv-x="387" 
d="M154 1337l386 -344h-32l-493 303zM267 926q39 0 62 -41.5t4 -118.5q-2 -9 -15 -49t-35.5 -108.5t-39.5 -122.5l-99 -334q-11 -47 -4.5 -63.5t31.5 -18.5q29 0 65.5 43t57.5 85l22 43l15 -6q-69 -134 -112.5 -188.5t-97.5 -53.5q-39 0 -62.5 42.5t-2.5 118.5q10 39 79 253
l111 360q21 73 -19 81q-14 3 -30.5 -4.5t-31 -22.5t-28.5 -33.5t-25 -38t-19.5 -35.5t-13.5 -26l-5 -11l-15 5q67 134 110.5 189t97.5 55z" />
    <glyph glyph-name="iacute" unicode="&#xed;" horiz-adv-x="382" 
d="M547 1296l-493 -303h-32l386 344zM266 926q40 0 63 -41.5t4 -118.5q-2 -8 -16 -49.5t-35.5 -107.5t-39.5 -123l-99 -334q-11 -47 -4 -63.5t32 -18.5q29 0 65 43t58 85l21 43l16 -6q-69 -134 -113 -188.5t-98 -53.5q-39 0 -62 42.5t-2 118.5q10 39 79 253l110 360
q21 73 -19 81q-14 3 -30.5 -4.5t-30.5 -22.5t-28 -33.5t-25 -38t-19.5 -35.5t-13.5 -26l-5 -11l-16 5q67 134 110.5 189t97.5 55z" />
    <glyph glyph-name="icircumflex" unicode="&#xee;" horiz-adv-x="387" 
d="M282 1345l290 -401h-36l-254 246l-254 -246h-36zM267 926q39 0 62 -41.5t4 -118.5q-2 -8 -15.5 -49.5t-35 -108t-39.5 -122.5l-99 -334q-11 -47 -4.5 -63.5t31.5 -18.5q30 0 66 43t57 85l22 43l16 -6q-69 -134 -113 -188.5t-98 -53.5q-39 0 -62.5 42.5t-2.5 118.5
q6 26 80 253l110 360q21 73 -19 81q-14 3 -30.5 -4.5t-31 -22.5t-28.5 -33.5t-25 -38t-19.5 -35.5t-13.5 -26l-5 -11l-15 5q67 134 110.5 189t97.5 55z" />
    <glyph glyph-name="idieresis" unicode="&#xef;" horiz-adv-x="380" 
d="M129 1043q-35 1 -60 26.5t-25 60.5t25 60t60 26q35 -1 60 -26t25 -60t-25 -60.5t-60 -26.5zM438 1216q35 0 61 -26q25 -25 25 -61q0 -26 -15 -48t-39 -32t-50 -4.5t-44 24.5t-23 45t5 50q23 52 80 52zM263 926q39 0 62 -41.5t4 -118.5q-2 -9 -15 -49t-35.5 -108.5
t-39.5 -122.5l-99 -334q-11 -47 -4.5 -63.5t31.5 -18.5q29 0 65.5 43t57.5 85l22 43l16 -6q-69 -134 -113 -188.5t-98 -53.5q-39 0 -62 42.5t-2 118.5q10 39 79 253l110 360q21 73 -19 81q-14 3 -30.5 -4.5t-30.5 -22.5t-28 -33.5t-25 -38t-19.5 -35.5t-13.5 -26l-5 -11
l-16 5q67 134 110.5 189t97.5 55z" />
    <glyph glyph-name="ntilde" unicode="&#xf1;" horiz-adv-x="776" 
d="M900 1207l9 -3q-24 -62 -61.5 -101t-74.5 -49.5t-70 -12.5t-53 4l-21 6l-173 67q-30 11 -73 12.5t-91 -18t-68 -62.5l-9 3q24 61 61.5 99.5t74 49t69 12.5t52.5 -4l21 -5l176 -68q20 -8 52.5 -9t67.5 5t66.5 25t44.5 49zM656 533l-119 -376q-21 -72 19 -80
q14 -3 30.5 4.5t30.5 22.5t28 33.5t25 38t19.5 35.5t13.5 27l5 10l16 -6q-67 -134 -110.5 -189t-97.5 -55q-39 0 -62.5 42t-4.5 119q0 3 2 9l5.5 16.5t6.5 20.5q9 28 40 125.5t47 149.5h1q88 290 88 321q0 48 -43 52q-53 5 -171 -179.5t-249 -467.5l-59 -185l-92 10l96 323
l22 72l97 340q21 72 -19 80q-14 3 -30.5 -4.5t-31 -22.5t-28.5 -33.5t-25 -38t-19.5 -35.5t-13.5 -26l-5 -11l-15 6q67 134 110.5 189t97.5 55q39 0 62 -42t4 -119q0 -1 -4 -17t-8 -30q-24 -89 -55 -191l-71 -245l23 47q77 166 164.5 322t134.5 210q55 65 108 65
q48 -3 81.5 -38t34.5 -84q0 -59 -79 -270z" />
    <glyph glyph-name="ograve" unicode="&#xf2;" horiz-adv-x="643" 
d="M305 1337l386 -344h-32l-493 303zM420 925q69 0 117.5 -45t69.5 -113t21 -151q0 -98 -34 -208t-88.5 -200.5t-130 -150t-150.5 -59.5q-69 0 -117 45.5t-69 113t-21 150.5q0 132 56 275.5t151 243t195 99.5zM217 31q71 0 147 115t123 264t47 257q0 225 -106 225
q-71 0 -147 -115t-123 -264t-47 -257q0 -225 106 -225z" />
    <glyph glyph-name="oacute" unicode="&#xf3;" horiz-adv-x="641" 
d="M718 1296l-493 -303h-32l386 344zM420 925q69 0 117.5 -45t69.5 -113t21 -151q0 -98 -34 -208t-88.5 -200.5t-130 -150t-150.5 -59.5q-69 0 -117 45.5t-69 113t-21 150.5q0 132 56 275.5t151 243t195 99.5zM217 31q71 0 147 115t123 264t47 257q0 225 -106 225
q-53 0 -112 -69.5t-103 -168.5t-72.5 -209t-28.5 -189q0 -225 105 -225z" />
    <glyph glyph-name="ocircumflex" unicode="&#xf4;" horiz-adv-x="645" 
d="M415 1345l291 -401h-37l-254 246l-254 -246h-36zM422 925q69 0 117.5 -45t69.5 -113t21 -151q0 -98 -34 -208t-88.5 -200.5t-130 -150t-150.5 -59.5q-69 0 -117 45.5t-69 113t-21 150.5q0 132 56 275.5t151 243t195 99.5zM219 31q71 0 147 115t123 264t47 257
q0 225 -105 225q-71 0 -147 -115t-123 -264t-47 -257q0 -225 105 -225z" />
    <glyph glyph-name="otilde" unicode="&#xf5;" horiz-adv-x="643" 
d="M801 1197l10 -3q-23 -59 -58.5 -95t-70 -46t-65.5 -11.5t-50 4.5l-19 5l-164 63q-27 10 -68 11.5t-86 -17.5t-63 -59l-9 3q22 58 57 94t69.5 46t65.5 12t50 -3l20 -5l164 -65q19 -7 49.5 -8t63.5 4.5t62.5 23.5t41.5 46zM420 925q69 0 117.5 -45t69.5 -113t21 -151
q0 -98 -34 -208t-88.5 -200.5t-130 -150t-150.5 -59.5q-69 0 -117 45.5t-69 113t-21 150.5q0 132 56 275.5t151 243t195 99.5zM217 31q71 0 147 115t123 264t47 257q0 225 -106 225q-71 0 -147 -115t-123 -264t-47 -257q0 -225 106 -225z" />
    <glyph glyph-name="odieresis" unicode="&#xf6;" horiz-adv-x="638" 
d="M267 1070q-35 0 -60 25t-25 60q0 26 14.5 48t38.5 33q53 23 94 -18q19 -19 24 -45t-5 -50q-11 -24 -33 -38.5t-48 -14.5zM576 1243q23 1 44 -11t33 -32q26 -44 0 -87q-12 -20 -33 -32t-44 -11q-35 2 -59 27t-24 60t24 59.5t59 26.5zM420 925q69 0 117.5 -45t69.5 -113
t21 -151q0 -98 -34 -208t-88.5 -200.5t-130 -150t-150.5 -59.5q-69 0 -117 45.5t-69 113t-21 150.5q0 132 56 275.5t151 243t195 99.5zM111 256q0 -225 106 -225q71 0 147 115t123 264t47 257q0 225 -106 225q-71 0 -147 -115t-123 -264t-47 -257z" />
    <glyph glyph-name="oslash" unicode="&#xf8;" horiz-adv-x="944" 
d="M1122 974l-290 -235q15 -60 15 -123q0 -98 -34 -208t-88.5 -200.5t-130 -150t-150.5 -59.5q-92 0 -143.5 73.5t-61.5 187.5l-331 -267l-8 9l338 273q-1 11 -1 33q0 132 56 275.5t151 243t195 99.5q72 0 120 -47t70 -126l286 231zM647 892q-61 0 -127.5 -88t-113.5 -210
t-66 -237l413 334q-5 201 -106 201zM753 667v8l-416 -336q-7 -47 -7 -83q0 -225 106 -225q71 0 147 115t123 264t47 257z" />
    <glyph glyph-name="ugrave" unicode="&#xf9;" horiz-adv-x="774" 
d="M742 993h-32l-493 303l138 41zM557 76q14 -3 30.5 4.5t31 22.5t28.5 34t25 38.5t19.5 35.5t13.5 27l5 10l16 -6q-67 -134 -110.5 -189t-97.5 -55q-40 0 -63 41.5t-4 118.5q0 1 4.5 17.5t8.5 30.5q22 82 55 190l70 246l-23 -47q-77 -166 -165 -322t-134 -210
q-55 -65 -107 -65q-48 3 -81.5 38t-34.5 84q0 59 79 270l119 375q21 73 -19 81q-14 3 -30.5 -4.5t-31 -22.5t-28.5 -33.5t-25 -38t-19.5 -35.5t-13.5 -26l-5 -11l-16 5q66 134 110.5 189t98.5 55q39 0 62 -41.5t4 -118.5q0 -3 -2 -9l-5.5 -16.5t-6.5 -20.5
q-9 -28 -40 -125.5t-47 -149.5l-1 -1q-88 -290 -88 -320q0 -49 43 -53q53 -5 171.5 180t249.5 468l59 185l91 -10l-96 -323l-22 -73l-96 -339q-21 -74 18 -81z" />
    <glyph glyph-name="uacute" unicode="&#xfa;" horiz-adv-x="774" 
d="M776 1296l-493 -303h-32l386 344zM635 496l-96 -339q-21 -73 19 -81q14 -3 30.5 4.5t30.5 22.5t28 34t25 38.5t19.5 35.5t13.5 27l5 10l16 -6q-67 -134 -110.5 -189t-97.5 -55q-40 0 -63 41.5t-4 118.5q0 1 4.5 17.5t8.5 30.5q22 82 55 190l70 246l-23 -47
q-77 -166 -165 -322t-134 -210q-55 -65 -107 -65q-48 3 -81.5 38t-34.5 84q0 59 79 270l119 375q21 73 -19 81q-14 3 -30.5 -4.5t-31 -22.5t-28.5 -33.5t-25 -38t-19.5 -35.5t-13.5 -26l-5 -11l-16 5q66 134 110.5 189t98.5 55q39 0 62 -41.5t4 -118.5q0 -3 -2 -9
l-5.5 -16.5t-6.5 -20.5q-9 -28 -40 -125.5t-47 -149.5l-1 -1q-88 -290 -88 -320q0 -49 43 -53q53 -5 171.5 180t249.5 468l59 185l91 -10l-96 -323z" />
    <glyph glyph-name="ucircumflex" unicode="&#xfb;" horiz-adv-x="776" 
d="M514 1394l290 -401h-36l-254 246l-254 -246h-37zM635 496l-96 -339q-21 -73 19 -81q14 -3 30.5 4.5t30.5 22.5t28 34t25 38.5t19.5 35.5t13.5 27l5 10l16 -6q-67 -134 -110.5 -189t-97.5 -55q-40 0 -63 41.5t-4 118.5q0 1 4.5 17.5t8.5 30.5q22 82 55 190l70 246l-23 -47
q-77 -166 -165 -322t-134 -210q-55 -65 -107 -65q-48 3 -81.5 38t-34.5 84q0 59 79 270l119 375q21 73 -19 81q-14 3 -30.5 -4.5t-31 -22.5t-28.5 -33.5t-25 -38t-19.5 -35.5t-13.5 -26l-5 -11l-16 5q66 134 110.5 189t98.5 55q39 0 62 -41.5t4 -118.5q0 -3 -2 -9
l-5.5 -16.5t-6.5 -20.5q-9 -28 -40 -125.5t-47 -149.5l-1 -1q-88 -290 -88 -320q0 -49 43 -53q53 -5 171.5 180t249.5 468l59 185l91 -10l-96 -323z" />
    <glyph glyph-name="udieresis" unicode="&#xfc;" horiz-adv-x="774" 
d="M387 1070q-35 2 -59.5 27t-24.5 60t24.5 59.5t59.5 26.5q50 2 76 -43q26 -44 0 -87q-26 -45 -76 -43zM698 1243q35 -1 60 -26t25 -60t-25 -60.5t-60 -26.5q-35 1 -60 26.5t-25 60.5t25 60t60 26zM635 496l-96 -339q-21 -73 19 -81q14 -3 30.5 4.5t30.5 22.5t28 34
t25 38.5t19.5 35.5t13.5 27l5 10l16 -6q-67 -134 -110.5 -189t-97.5 -55q-40 0 -63 41.5t-4 118.5q0 1 4.5 17.5t8.5 30.5q22 82 55 190l70 246l-23 -47q-77 -166 -165 -322t-134 -210q-55 -65 -107 -65q-48 3 -81.5 38t-34.5 84q0 59 79 270l119 375q21 73 -19 81
q-14 3 -30.5 -4.5t-31 -22.5t-28.5 -33.5t-25 -38t-19.5 -35.5t-13.5 -26l-5 -11l-16 5q66 134 110.5 189t98.5 55q39 0 62 -41.5t4 -118.5q0 -3 -2 -9l-5.5 -16.5t-6.5 -20.5q-9 -28 -40 -125.5t-47 -149.5l-1 -1q-88 -290 -88 -320q0 -49 43 -53q53 -5 171.5 180
t249.5 468l59 185l91 -10l-96 -323z" />
    <glyph glyph-name="yacute" unicode="&#xfd;" horiz-adv-x="626" 
d="M680 1327l-493 -303h-32l386 344zM800 1144q78 18 141 -37.5t100 -151.5l-13 -8q-48 80 -95 110t-104 17q-93 -24 -165 -93l-26 -21q11 -42 11.5 -98.5t-10.5 -130.5t-40.5 -164.5t-74 -190t-114.5 -217.5t-159 -238q-85 -116 -198 -211t-206 -98h-5q-72 0 -138 36.5
t-81 83.5q-11 33 12.5 63t52.5 43l29 14q0 -4 1 -12t5 -30.5t9.5 -42.5t16 -45t23.5 -42.5t32.5 -29.5t42.5 -12q88 3 202 97.5t236 266.5q-25 131 -39 257.5t-16 214t0 156t6 102.5l4 33q14 74 -19 80q-14 3 -30.5 -4.5t-30.5 -22.5t-28 -33.5t-25 -38t-19.5 -35.5
t-13.5 -27l-5 -10l-16 6q67 134 110.5 189t97.5 55q36 0 54.5 -39.5t11.5 -121.5q-30 -316 37 -621q168 283 222 487.5t31 314.5q-38 -26 -88 -39q-48 -11 -86.5 7t-47.5 59q-8 34 10.5 61.5t61.5 36.5q4 1 12 1q39 5 75.5 -10t60.5 -46q0 -1 1.5 -3.5t2.5 -3.5l8 7
q9 9 33.5 36t39 40.5t42 30t58.5 23.5zM419 978q6 -27 31 -40t61 -5q53 14 90 57q-1 2 -3 5t-3 5q-38 52 -105 49q-6 0 -18 -2q-29 -6 -44 -25t-9 -44z" />
    <glyph glyph-name="ydieresis" unicode="&#xff;" horiz-adv-x="626" 
d="M214 1125q-35 1 -60 26.5t-25 60.5t25 60t60 26q35 -1 60 -26t25 -60t-25 -60.5t-60 -26.5zM523 1125q-35 2 -59 27t-24 60q0 34 24 59t59 27q35 -1 60 -26t25 -60t-25 -60.5t-60 -26.5zM800 1144q78 18 141 -37.5t100 -151.5l-13 -8q-48 80 -95 110t-104 17
q-93 -24 -165 -93l-26 -21q11 -42 11.5 -98.5t-10.5 -130.5t-40.5 -164.5t-74 -190t-114.5 -217.5t-159 -238q-85 -116 -198 -211t-206 -98h-5q-72 0 -138 36.5t-81 83.5q-11 33 12.5 63t52.5 43l29 14q0 -4 1 -12t5 -30.5t9.5 -42.5t16 -45t23.5 -42.5t32.5 -29.5t42.5 -12
q88 3 202 97.5t236 266.5q-25 131 -39 257.5t-16 214t0 156t6 102.5l4 33q14 74 -19 80q-14 3 -30.5 -4.5t-30.5 -22.5t-28 -33.5t-25 -38t-19.5 -35.5t-13.5 -27l-5 -10l-16 6q67 134 110.5 189t97.5 55q36 0 54.5 -39.5t11.5 -121.5q-30 -316 37 -621q168 283 222 487.5
t31 314.5q-38 -26 -88 -39q-48 -11 -86.5 7t-47.5 59q-8 34 10.5 61.5t61.5 36.5q4 1 12 1q39 5 75.5 -10t60.5 -46q0 -1 1.5 -3.5t2.5 -3.5l8 7q9 9 33.5 36t39 40.5t42 30t58.5 23.5zM510 933q54 14 91 57q-1 2 -3 5t-3 5q-38 52 -105 49q-6 0 -18 -2q-29 -6 -44 -25
t-9 -44q6 -27 30.5 -40t60.5 -5z" />
    <glyph glyph-name="Aogonek" unicode="&#x104;" horiz-adv-x="907" 
d="M861 -180l6 -10q-4 -2 -15.5 -9t-15.5 -9.5t-15 -8.5t-15.5 -8t-14.5 -7t-15.5 -7t-14.5 -5t-16 -4t-15.5 -2t-16.5 -1q-38 0 -67 8t-51 24q-45 32 -43 87q0 48 31 85q26 30 62 47h-207l1 18l69 4q34 2 51 24t14 60l-29 423h-311l-148 -338q-41 -90 -35.5 -127.5
t63.5 -41.5l52 -4l3 -18h-314l2 18l27 2q40 3 68.5 26t61 78t84.5 169l396 876l-5 101h127l71 -1132q5 -60 23.5 -86t60.5 -30l39 -4l1 -18h-103q-10 -3 -16 -7q-21 -12 -31 -26q-13 -16 -21 -37t-8 -40q-3 -46 37 -67q96 -37 193 -3zM242 548h301l-33 560l-3 20z" />
    <glyph glyph-name="aogonek" unicode="&#x105;" horiz-adv-x="708" 
d="M414 -14q-11 -14 -19 -33t-8 -36q-3 -41 33 -61q87 -34 175 -3l6 -9q-32 -20 -48 -28.5t-42.5 -17.5t-49.5 -9q-32 0 -60 7q-23 5 -46 22q-42 30 -40 79q0 42 29 77q25 30 62 45q-47 44 -22 143q28 112 93 303l67 194q-18 -35 -53.5 -105.5t-62.5 -123.5t-63.5 -122.5
t-67 -119t-63 -94.5t-61.5 -68.5t-52 -23.5q-61 0 -94.5 53.5t-33.5 139.5q0 95 43 223t106.5 240.5t143.5 191t146 78.5q49 0 83.5 -62.5t41.5 -146.5l114 206l31 -1l-134 -427l-97 -336q-21 -73 19 -81q31 -8 69 35t61 89l23 47l15 -6q-67 -134 -110.5 -189t-97.5 -55
q-8 0 -17 3q-9 -7 -19 -18zM170 87q22 0 54.5 37t73.5 109.5t74.5 138t83 165.5t75.5 149q-7 37 -23.5 74.5t-49.5 69t-71 31.5q-71 0 -141 -120t-109.5 -266.5t-39.5 -245.5q0 -142 73 -142z" />
    <glyph glyph-name="Cacute" unicode="&#x106;" horiz-adv-x="819" 
d="M830 1593l-493 -303h-32l386 344zM630 1297q65 -4 117.5 -42.5t75.5 -100.5q8 -25 -0.5 -49t-26.5 -40.5t-37 -29.5t-33 -19l-15 -6q1 10 2 26.5t-1.5 59.5t-10 77t-28.5 64.5t-52 35.5q-3 0 -8.5 0.5t-8.5 0.5q-87 0 -162.5 -55.5t-128 -145.5t-90.5 -204.5t-56 -232.5
t-18 -229q0 -403 246 -403q222 0 341 330l23 -1q-2 -8 -6.5 -20.5t-20 -50t-34 -71.5t-49.5 -75.5t-65 -71.5t-81.5 -51t-99.5 -21q-183 -1 -284.5 132t-101.5 353q0 152 43 302.5t117 270.5t184 194.5t235 74.5q12 0 34 -2z" />
    <glyph glyph-name="cacute" unicode="&#x107;" horiz-adv-x="561" 
d="M703 1296l-493 -303h-32l386 344zM431 925q58 1 106 -32t68 -88q11 -33 -12.5 -63t-52.5 -44l-28 -13q1 9 1.5 23.5t-2.5 52t-11 66t-29.5 51t-52.5 21.5q-65 -3 -135 -94.5t-117.5 -237.5t-47.5 -290q0 -206 116 -206q56 0 107.5 53.5t111.5 152.5l20 -17
q-28 -52 -51.5 -90t-60 -81.5t-80.5 -67t-92 -23.5t-84 24t-55.5 64.5t-28.5 86.5t-9 98q0 147 65 301t163.5 253.5t190.5 99.5z" />
    <glyph glyph-name="Eogonek" unicode="&#x118;" horiz-adv-x="770" 
d="M780 1270l27 -333l-15 -3q-7 81 -41.5 152t-98.5 119t-143 48h-135l-109 -568h300l-8 -18h-296l-124 -649h125q155 0 252.5 66.5t153.5 202.5l15 -2l-107 -285h-68q-68 -32 -67 -85q2 -44 52 -68q63 -29 147 2l4 -6q-71 -54 -163 -41q-74 11 -100 57q-33 59 46 125
q10 8 21 16h3h-560l1 18l71 4q52 2 61 41l219 1136q5 23 -6.5 36t-44.5 14l-63 4v17h651z" />
    <glyph glyph-name="eogonek" unicode="&#x119;" horiz-adv-x="542" 
d="M571 796q0 -187 -430 -319q-23 -103 -23 -203t27 -151.5t89 -51.5q32 0 72.5 37t76.5 106t51.5 167t-2.5 221l15 9q39 -187 0 -323.5t-112.5 -213.5t-145.5 -77q-2 0 -6 0.5t-6 0.5q-46 -40 -25 -87q20 -45 83 -56q51 -9 110 14l3 -6q-71 -55 -163 -41q-74 11 -100 57
q-33 59 46 125q2 1 4 3q-63 23 -92.5 95.5t-29.5 165.5q0 148 60.5 302t154 254t183.5 100q74 0 117 -36.5t43 -91.5zM399 893q-70 0 -142.5 -113t-111.5 -275q104 32 170.5 66.5t98.5 72.5t43 73t11 83q0 93 -69 93z" />
    <glyph glyph-name="dotlessi" unicode="&#x131;" horiz-adv-x="378" 
d="M239 486l-99 -334q-11 -47 -4.5 -63.5t31.5 -18.5q30 0 66 43t57 85l22 43l16 -6q-69 -134 -113 -188.5t-98 -53.5q-39 0 -62 42.5t-2 118.5q10 39 79 253l110 360q21 73 -19 81q-14 3 -30.5 -4.5t-30.5 -22.5t-28 -33.5t-25 -38t-19.5 -35.5t-13.5 -26l-5 -11l-16 5
q67 134 110.5 189t97.5 55q39 0 62 -41.5t4 -118.5q-2 -9 -15 -49t-35.5 -108.5t-39.5 -122.5z" />
    <glyph glyph-name="Lslash" unicode="&#x141;" horiz-adv-x="733" 
d="M668 366l18 2l-140 -368h-636l1 18l71 4q53 2 61 39l108 558l-152 -92l-10 15l167 101l107 557q5 24 -3 36.5t-41 13.5l-63 4v17h401v-17l-78 -2q-83 -2 -92 -42l-94 -484l179 109l10 -16l-194 -117l-133 -684h121q114 3 227.5 110.5t164.5 237.5z" />
    <glyph glyph-name="lslash" unicode="&#x142;" horiz-adv-x="366" 
d="M151 70q30 0 66 43t57 86l22 43l16 -6q-69 -134 -113 -189t-98 -54q-39 0 -62.5 42.5t-2.5 119.5q6 23 76 243l128 438l-168 -101l-9 15l184 112l120 410q11 38 -19 40l-118 6l2 9l267 54q-3 -13 -138 -451l185 113l9 -16l-203 -123q-84 -273 -129 -418l-100 -334
q-11 -47 -4 -63.5t32 -18.5z" />
    <glyph glyph-name="Nacute" unicode="&#x143;" horiz-adv-x="933" 
d="M898 1618l-493 -303h-32l386 343zM757 1270h296l-1 -17l-38 -2q-97 -5 -110 -74l-229 -1185h-55l-337 1112l-14 45l-200 -1047q-6 -36 19 -57.5t84 -24.5l35 -2v-18h-308l1 18l39 2q91 5 104 74l209 1079q-37 65 -112 78l-18 2v17h238l317 -1040l10 -36l189 971
q8 41 -9.5 62t-75.5 24l-35 2z" />
    <glyph glyph-name="nacute" unicode="&#x144;" horiz-adv-x="774" 
d="M778 1296l-493 -303h-32l386 344zM656 533l-119 -376q-21 -72 19 -80q14 -3 30.5 4.5t30.5 22.5t28 33.5t25 38t19.5 35.5t13.5 27l5 10l16 -6q-67 -134 -110.5 -189t-97.5 -55q-39 0 -62.5 42t-4.5 119q0 3 2 9l5.5 16.5t6.5 20.5q9 28 40 125.5t47 149.5h1
q88 290 88 321q0 48 -43 52q-53 5 -171 -179.5t-249 -467.5l-59 -185l-92 10l96 323l22 72l97 340q21 72 -19 80q-14 3 -30.5 -4.5t-31 -22.5t-28.5 -33.5t-25 -38t-19.5 -35.5t-13.5 -26l-5 -11l-15 6q67 134 110.5 189t97.5 55q39 0 62 -42t4 -119q0 -1 -4 -17t-8 -30
q-24 -89 -55 -191l-71 -245l23 47q77 166 164.5 322t134.5 210q55 65 108 65q48 -3 81.5 -38t34.5 -84q0 -59 -79 -270z" />
    <glyph glyph-name="OE" unicode="&#x152;" horiz-adv-x="1286" 
d="M1296 1270l27 -333l-14 -3q-7 81 -42 152t-99 119t-143 48h-134l-24 -127l-60 -311l-25 -130h300l-8 -18h-296l-58 -303l-49 -255l-17 -91h125q155 0 252.5 66.5t153.5 202.5l15 -3l-107 -284h-579q-66 -29 -131 -29q-167 0 -266.5 131.5t-99.5 352.5q0 172 49.5 330.5
t129 269.5t179.5 177t199 66q73 0 138 -28h584zM543 77l207 1069q-32 75 -104 107v0q-32 13 -70 13q-89 0 -171.5 -82.5t-136.5 -203t-86.5 -251t-32.5 -231.5q0 -241 55 -367.5t177 -126.5q42 0 77 16q48 22 85 57z" />
    <glyph glyph-name="oe" unicode="&#x153;" horiz-adv-x="1011" 
d="M1043 796q0 -92 -104 -170q3 -155 -21 -280t-65.5 -200t-91.5 -114.5t-102 -39.5q-73 0 -116 51t-56 133q-53 -85 -121.5 -134.5t-138.5 -49.5q-102 0 -155.5 90t-53.5 221q0 99 34 209.5t88.5 201.5t130.5 151t152 60q78 0 127.5 -57t65.5 -149q60 95 130 150.5
t136 55.5q74 0 117.5 -36.5t43.5 -92.5zM219 25q54 0 113 70t103.5 169.5t73.5 210t29 190.5q0 227 -106 227q-71 0 -148 -115.5t-124.5 -265.5t-47.5 -259q0 -227 107 -227zM869 895q-71 0 -143.5 -114t-111.5 -277q104 33 171 67t99.5 72.5t43.5 73.5t11 83q0 45 -18.5 70
t-51.5 25zM587 270q0 -101 27.5 -152.5t89.5 -51.5q31 0 68 37t70 102t54 172t17 230q-140 -86 -303 -132q-23 -103 -23 -205z" />
    <glyph glyph-name="Sacute" unicode="&#x15a;" horiz-adv-x="655" 
d="M711 1618l-493 -303h-32l386 343zM466 1288q65 -4 118 -43t76 -100q8 -25 -0.5 -49t-26.5 -40.5t-37 -29t-34 -18.5l-14 -6q0 5 0.5 14t0.5 34.5t-1.5 49t-7.5 53t-15.5 51.5t-27 39t-40.5 21q-3 0 -8.5 0.5t-8.5 0.5q-93 0 -163 -76t-70 -182q0 -93 37 -154.5
t122 -137.5q53 -48 83 -80t62.5 -78t47 -98t14.5 -114q0 -67 -25.5 -134t-71.5 -123t-120.5 -91t-162.5 -35q-72 0 -144 29.5t-108 76.5l46 299h13l12 -171q6 -103 57 -155t137 -52q105 0 184.5 89.5t79.5 203.5q0 107 -41 177.5t-146 167.5q-93 85 -135 158.5t-42 179.5
q4 133 98.5 227.5t228.5 97.5h2h2q9 0 29 -2z" />
    <glyph glyph-name="sacute" unicode="&#x15b;" horiz-adv-x="507" 
d="M604 1296l-493 -303h-32l386 344zM336 925q70 1 125.5 -34.5t71.5 -85.5q11 -33 -12.5 -63t-52.5 -44l-29 -13q0 5 0.5 12.5t0.5 30.5t-2 43.5t-8.5 45t-16 42.5t-27 29.5t-40.5 10.5q-60 0 -103 -52t-43 -119q0 -55 23.5 -104t76.5 -108q38 -44 62 -76.5t47 -87.5
t23 -110q-4 -100 -74 -170.5t-170 -74.5q-72 -1 -140.5 36t-83.5 85q-11 33 12.5 63t52.5 43l29 14q-1 -9 -1.5 -23.5t2.5 -51.5t11 -65.5t29.5 -51.5t52.5 -23q58 -1 99 16t61 46t28.5 59t8.5 63q0 57 -29.5 110.5t-82.5 117.5q-62 75 -91 129.5t-29 126.5q0 88 66.5 161
t152.5 73z" />
    <glyph glyph-name="Scaron" unicode="&#x160;" horiz-adv-x="655" 
d="M730 1716l-290 -401l-290 401h36l254 -245l254 245h36zM466 1288q65 -4 118 -43t76 -100q8 -25 -0.5 -49t-26.5 -40.5t-37 -29t-34 -18.5l-14 -6q0 5 0.5 14t0.5 34.5t-1.5 49t-7.5 53t-15.5 51.5t-27 39t-40.5 21q-3 0 -8.5 0.5t-8.5 0.5q-93 0 -163 -76t-70 -182
q0 -93 37 -154.5t122 -137.5q53 -48 83 -80t62.5 -78t47 -98t14.5 -114q0 -67 -25.5 -134t-71.5 -123t-120.5 -91t-162.5 -35q-72 0 -144 29.5t-108 76.5l46 299h13l12 -171q6 -103 57 -155t137 -52q105 0 184.5 89.5t79.5 203.5q0 107 -41 177.5t-146 167.5
q-93 85 -135 158.5t-42 179.5q4 133 98.5 227.5t228.5 97.5h2h2q9 0 29 -2z" />
    <glyph glyph-name="scaron" unicode="&#x161;" horiz-adv-x="509" 
d="M623 1370l-290 -401l-290 401h36l254 -246l254 246h36zM336 925q70 1 125.5 -34.5t71.5 -85.5q11 -33 -12.5 -63t-52.5 -44l-29 -13q1 9 1.5 23.5t-2.5 52t-11 66t-29.5 51t-52.5 21.5q-60 0 -102.5 -52t-42.5 -119q0 -55 23.5 -104t76.5 -108q38 -44 62 -76.5t47 -87.5
t23 -110q-4 -100 -74 -170.5t-170 -74.5q-72 -1 -140.5 36t-83.5 85q-11 33 12.5 63t52.5 43l29 14q-1 -9 -1.5 -23.5t2.5 -51.5t11 -65.5t29.5 -51.5t52.5 -23q58 -1 99 16t61 46t28.5 59t8.5 63q0 57 -29.5 110.5t-82.5 117.5q-62 75 -91 129.5t-29 126.5q0 88 66.5 161
t152.5 73z" />
    <glyph glyph-name="Ydieresis" unicode="&#x178;" horiz-adv-x="802" 
d="M347 1399q-35 1 -60 26.5t-25 60.5t25 60t60 26q35 -1 60 -26t25 -60t-25 -60.5t-60 -26.5zM657 1399q-35 0 -60 25.5t-25 60.5q0 57 52 80q24 11 50 6t45 -24t24 -45t-5 -50q-11 -24 -33 -38.5t-48 -14.5zM946 1270l1 -17l-34 -4q-44 -3 -80.5 -36.5t-85.5 -116.5
l-289 -486l-103 -540q-4 -23 6.5 -34t56.5 -14l83 -4l2 -18h-432l2 18l87 4q30 1 47.5 8t22 14t7.5 19l99 517l-124 546q-16 71 -30.5 95.5t-46.5 27.5l-43 4v17h343l1 -17l-57 -4q-73 -3 -53 -101l104 -503l5 -27l283 478q29 50 37.5 81.5t-4 49t-48.5 20.5l-55 6l-2 17
h300z" />
    <glyph glyph-name="Zacute" unicode="&#x179;" horiz-adv-x="813" 
d="M830 1593l-493 -303h-32l387 344zM852 1251l-783 -1212v-9h178q159 0 291.5 107.5t203.5 262.5l20 1l-159 -401h-683l2 22l787 1210v9h-189q-147 0 -269.5 -99t-165.5 -227l-19 -2l116 358h674z" />
    <glyph glyph-name="zacute" unicode="&#x17a;" horiz-adv-x="815" 
d="M712 1296l-493 -303h-32l387 344zM711 755q-65 1 -134 27l-514 -611q33 9 69 9q74 -1 147 -31l40 -16q80 -35 228 -37q76 -1 117.5 28t78.5 116l11 -3q-10 -51 -26 -90.5t-41.5 -73.5t-65.5 -52.5t-91 -18.5q-40 0 -79 10.5t-59 20t-60 32t-51 28.5l-34 16
q-59 37 -132 40q-29 0 -57 -9q-7 -39 8.5 -75t48.5 -58h-17q-44 -2 -83 22h-1v1q-32 21 -32 58q0 31 23 52l502 601q20 29 39 52l-22 9q-49 22 -101 28t-130 7q-81 1 -131.5 -28.5t-86.5 -112.5l-11 3q20 102 84 169t164 66q40 0 79 -10.5t59.5 -20.5t60 -32.5t51.5 -28.5
l19 -8q46 49 87 72.5t59 22.5l18 -1q56 -1 86 -23t30 -57q-1 -42 -44 -68t-106 -25zM745 907q-78 -2 -137 -87q54 -31 119 -33q47 -1 78 17.5t31 45.5q0 26 -26 41.5t-65 15.5z" />
    <glyph glyph-name="Zdot" unicode="&#x17b;" horiz-adv-x="813" 
d="M490 1376q-47 0 -77 30q-32 32 -32 76t31 75.5t75 31.5t75.5 -30.5t32.5 -74.5t-30 -75.5t-75 -32.5zM852 1251l-783 -1212v-9h178q159 0 291.5 107.5t203.5 262.5l20 1l-159 -401h-683l2 22l787 1210v9h-189q-147 0 -269.5 -99t-165.5 -227l-19 -2l116 358h674z" />
    <glyph glyph-name="zdot" unicode="&#x17c;" horiz-adv-x="815" 
d="M437 1072q-46 0 -77 31q-32 32 -32 76t31 75.5t75 31.5t75 -31t32 -75t-29.5 -75.5t-74.5 -32.5zM711 751q-69 2 -135 26l-513 -610q33 9 68 9q75 -1 148 -31l39 -16q80 -35 229 -37q76 -1 117.5 28t78.5 116l11 -3q-10 -51 -26 -90.5t-41.5 -73.5t-65.5 -52.5t-91 -18.5
q-40 0 -79 10.5t-59.5 20t-61 32.5t-50.5 28l-33 16q-59 37 -132 40q-29 0 -58 -9q-7 -39 9 -75t49 -58h-18q-44 -2 -83 22h-1q-31 20 -31 59q0 30 23 51l502 602q20 29 39 52l-22 9q-34 15 -76.5 22.5t-71.5 9t-83 2.5q-81 1 -131.5 -28.5t-86.5 -112.5l-11 3
q20 102 84 169t164 66q40 0 79 -10.5t59.5 -20t61 -32.5t50.5 -28l18 -9q29 31 56.5 52.5t46.5 29.5t33.5 11.5t21.5 2.5l7 -1q55 -1 85 -23.5t30 -57.5q-1 -42 -43.5 -67.5t-105.5 -24.5zM744 902q-78 -2 -136 -86q56 -32 119 -34q47 -1 77.5 17.5t30.5 45.5q0 26 -26 41.5
t-65 15.5z" />
    <glyph glyph-name="zcaron" unicode="&#x17e;" horiz-adv-x="815" 
d="M773 1370l-291 -401l-290 401h36l254 -246l254 246h37zM710 748q-66 1 -135 27l-513 -611q33 9 68 9q75 -1 148 -31l39 -16q80 -35 229 -37q76 -1 117.5 28t78.5 116l10 -3q-10 -51 -26 -90.5t-41.5 -73.5t-65 -52.5t-90.5 -18.5q-40 0 -79 10.5t-59.5 20t-61 32.5
t-50.5 28l-33 16q-59 37 -132 40q-30 0 -58 -9q-7 -39 8.5 -75t48.5 -58h-17q-44 -2 -83 22h-1v1q-31 20 -31 58q0 31 23 52l502 601q20 29 39 52l-22 9q-34 15 -76.5 22.5t-71.5 9t-83 2.5q-81 1 -131.5 -28.5t-86.5 -112.5l-11 3q20 102 84 169t164 66q40 0 79 -10.5
t59.5 -20t61 -32.5t50.5 -28l18 -8q46 49 87 72.5t60 22.5l18 -1q56 -1 85.5 -23t29.5 -57q-1 -42 -44 -68t-105 -25zM743 900q-78 -2 -137 -87q56 -32 120 -34q47 -1 77.5 18t30.5 46q0 26 -26 41.5t-65 15.5z" />
    <glyph glyph-name="quoteright" unicode="&#x2019;" horiz-adv-x="264" 
d="M277 1241q28 -41 28 -95q0 -77 -55 -151t-145 -118l-8 12q118 73 118 176q-2 57 -38 101q-14 20 -11.5 43t19.5 40q21 21 48 18q28 -2 44 -26z" />
    <glyph glyph-name="quotedblleft" unicode="&#x201c;" horiz-adv-x="528" 
d="M132 1018q0 77 55.5 152t146.5 119l8 -12q-119 -75 -119 -176q2 -57 38 -101q14 -20 11.5 -43t-19.5 -40q-21 -21 -48 -18q-28 3 -45 26q-28 41 -28 93zM606 1277q-118 -74 -118 -175q2 -57 37 -100q15 -19 13 -43.5t-19 -41.5q-21 -21 -48 -18q-28 3 -45 26
q-28 41 -28 93q0 77 55.5 152t144.5 119z" />
    <glyph glyph-name="quotedblright" unicode="&#x201d;" horiz-adv-x="530" 
d="M547 1240q28 -44 28 -94q0 -77 -55.5 -151t-146.5 -118l-8 12q119 72 119 176q-2 59 -38 101q-14 19 -12 42t19 40q21 21 49 18t45 -26zM187 1248q21 21 49 18q30 -3 45 -26q28 -44 28 -94q0 -77 -55.5 -151t-146.5 -118l-8 12q119 72 119 176q-2 59 -38 101
q-14 19 -12 42t19 40z" />
    <glyph glyph-name="Euro" unicode="&#x20ac;" horiz-adv-x="991" 
d="M1007 1129l-16 -191h-24q0 6 -0.5 17t-6 42.5t-14 60t-28 64t-45.5 60.5q-73 76 -179 78q-79 0 -151 -41t-126.5 -112t-95 -161t-63.5 -192h371l-15 -32h-363q-15 -77 -20 -170h302l-14 -32h-288v-7q0 -217 91 -344t241 -127q166 2 279 122l16 -19q-152 -162 -336 -162
q-181 0 -296 143t-115 381v13h-100l6 32h96q3 89 22 170h-84l6 32h85q38 151 114 270t189.5 192t245.5 73q94 2 177.5 -40t137.5 -119h1v-1z" />
    <glyph glyph-name="e.alt1" unicode="&#xf000;" horiz-adv-x="604" 
d="M652 564q78 17 141 -38.5t100 -151.5l-12 -7q-48 80 -95.5 109.5t-104.5 16.5q-94 -24 -165 -92l-27 -22q-20 -16 -35 -25h-1q-5 -94 -45 -182t-100.5 -142t-121.5 -54q-48 0 -84 23.5t-55.5 63.5t-28.5 86t-9 98q0 111 36.5 230t93 212.5t129.5 154t140 60.5
q74 0 117.5 -36.5t43.5 -91.5q0 -186 -431 -320q-23 -103 -23 -203t27 -151.5t89 -51.5q59 0 126.5 93t78.5 201q-21 -11 -55 -20q-48 -11 -86.5 7t-47.5 59q-8 34 10.5 61.5t61.5 36.5q12 3 25 3q39 3 69.5 -22t35.5 -64q1 1 3.5 4t3.5 4l22 21q8 8 33.5 36t40 41t42 29.5
t58.5 23.5zM396 873q-71 0 -143 -112.5t-111 -275.5q104 32 170.5 66.5t98.5 72.5t43 73t11 83q0 93 -69 93zM362 352q43 11 72 39q-3 34 -30 58q-26 23 -62 20l-18 -3q-29 -6 -44 -25t-9 -44q6 -27 30.5 -40t60.5 -5z" />
    <glyph glyph-name="i.alt1" unicode="&#xf002;" horiz-adv-x="387" 
d="M597 1178q79 4 132.5 -60.5t74.5 -165.5l-14 -5q-34 87 -75.5 124t-100.5 33q-95 -9 -178 -65l-6 -3l-27 -16q-52 -30 -113 -35q-49 -3 -84.5 21t-37.5 66q-2 35 20.5 58.5t66.5 26.5q80 -2 131 -59l1 -2q14 -14 17 -18q9 6 39 30t46 34.5t46.5 22t61.5 13.5zM276 1015
q55 6 102 46q-56 78 -121 74q-30 -2 -47.5 -18.5t-16.5 -41.5q2 -28 24.5 -45t58.5 -15zM259 906q39 0 62 -41.5t4 -118.5q-2 -9 -15 -49.5t-35.5 -109t-39.5 -122.5l-100 -334q-11 -47 -4 -63.5t32 -18.5q30 0 66 42.5t57 85.5l22 43l15 -5q-69 -135 -112.5 -189.5
t-97.5 -53.5q-39 0 -62.5 42.5t-2.5 118.5q10 39 79 253l110 361q21 73 -19 81q-14 3 -30.5 -4.5t-30.5 -22.5t-28 -34t-25 -38.5t-19.5 -35.5t-13.5 -27l-5 -10l-16 6q66 134 110.5 189t98.5 55z" />
    <glyph glyph-name="s.alt1" unicode="&#xf003;" horiz-adv-x="516" 
d="M543 748q4 -35 -24.5 -60.5t-58.5 -33.5l-31 -8l3 12t5.5 30.5t5 43t0 46.5t-8 45.5t-21.5 34t-38 17.5q-60 11 -113 -33t-61 -110q1 -20 -1 -28t3 -29t7 -30t10 -31.5t12 -33.5t14 -36t15 -39q2 -4 33 -81.5t45.5 -116t34.5 -98t27 -94.5q13 -78 5.5 -151t-40 -137
t-76.5 -116.5t-103.5 -88t-122.5 -53t-132 -10.5t-132 39q-45 23 -92 65q-17 15 -34 38l-2 2v1h-1q-14 21 -23 41q0 1 -1 3t-1 3v-1q-15 38 -5 81q-66 -25 -137 -10q-77 19 -109.5 96.5t-23.5 180.5l15 1q7 -93 36.5 -140.5t86.5 -61.5q95 -20 190 10q-26 -44 -26 -96
q2 -59 34 -103q74 -98 197 -120q135 -23 258.5 47t150.5 190q29 139 -18 278q-20 67 -57.5 175.5t-53.5 157.5q-10 33 -17 54t-9 27.5t-8 28.5t-18 69q-13 55 -4 101.5t35.5 83.5t61 62t73.5 35.5t73 4.5q69 -12 117.5 -57t54.5 -97z" />
    <glyph glyph-name="s.alt2" unicode="&#xf007;" horiz-adv-x="450" 
d="M472 747q4 -35 -24.5 -60t-59.5 -33l-31 -8l3 12t6 30.5t5.5 43t-0.5 46.5t-8.5 45.5t-21.5 34t-38 17.5q-60 11 -113 -33.5t-61 -110.5q0 -19 -1.5 -28t3.5 -29t7 -29.5t9.5 -31t12.5 -33.5t14 -36.5t15 -39.5q2 -4 31.5 -79t43.5 -112t34 -95.5t28 -94.5q0 -2 2 -6.5
t2 -6.5q23 -84 14 -169q-14 -142 -98.5 -241t-194.5 -107h-16q-16 0 -24 1q-22 3 -23 3q-114 26 -174 129q-1 2 -2.5 4.5t-2.5 3.5q-17 29 -29 61q-4 7 -5 13q-7 20 -8 26q-46 -14 -99 -3q-64 16 -90.5 79.5t-19.5 149.5l12 1q6 -77 30.5 -117t71.5 -51q39 -8 85 -5h2
q6 0 18 2q4 -28 8 -44q11 -41 23 -68q12 -25 23 -42q29 -50 77 -83t106 -40q7 -1 21 -1q39 0 74 13q34 13 60.5 38t41 51t23.5 51t12 41l3 15q24 144 -26 280q-21 68 -58.5 177.5t-52.5 156.5q-12 40 -19 61.5t-12.5 39.5t-20.5 78q-16 65 2 124.5t57 96.5t88 56t92 11
q69 -12 118 -57.5t55 -97.5z" />
    <glyph glyph-name="y.alt1" unicode="&#xf008;" horiz-adv-x="628" 
d="M770 1125q78 18 140.5 -37.5t99.5 -152.5l-12 -8q-48 80 -95 110t-104 17q-93 -24 -165 -93l-26 -21q11 -42 11.5 -99t-10.5 -131t-40.5 -164.5t-74 -190t-115 -217.5t-159.5 -238q-85 -117 -197.5 -211.5t-206.5 -97.5h-4h-1q-72 0 -138 36.5t-81 83.5q-11 33 12.5 63
t51.5 44l29 13q1 -9 3 -23.5t11 -51.5t22 -65t38.5 -51t56.5 -23q87 3 201 97t237 267q-25 131 -39 258t-16 214.5t0 156t6 102.5l4 33q14 74 -19 80q-14 3 -30.5 -4.5t-31 -22.5t-28.5 -33.5t-25 -38t-19.5 -35.5t-13.5 -27l-5 -10l-15 6q67 134 110.5 189t97.5 55
q36 0 54.5 -39.5t11.5 -121.5q-30 -316 37 -622q168 283 222 488t31 315q-38 -26 -88 -39q-48 -11 -86.5 7t-47.5 59q-8 34 10.5 61.5t61.5 36.5q4 1 12 1v1q39 5 75.5 -10t60.5 -47q0 -1 2 -3t2 -3l8 7q8 8 33.5 36t40 41t42 29.5t58.5 23.5zM480 913q53 14 90 57
q-1 1 -3 4.5t-3 5.5q-38 52 -105 49q-6 0 -18 -2q-29 -6 -44 -25t-9 -44q6 -27 31 -40t61 -5z" />
    </font>
</defs>
</svg>
